Мамця (Сезон 4) / Mom (Season 4) (2016-2017) 720p

Нові коментарі

Нова тема   Відповісти
Автор Повідомлення
alex_ter_ua 
Новенький


З нами з: 08.10.14
Востаннє: 10.12.19
Повідомлень: 7

2019-12-04 17:42  
Мамця (Сезон 4) / Mom (Season 4) (2016-2017) 720p

Мамця (Сезон 4) / Mom (Season 4) (2016-2017) 720p


Жанр: комедія
Країна: США



Кінокомпанія / телеканал: Chuck Lorre Productions, Warner Bros. Television
Режисер: Памела Фріман
Актори/ролі озвучують: Анна Фаріс, Еллісон Дженні, Джеймі Преслі, Саді Кальвано, Мімі Кенеді та інші.

Сюжет:
Крісті - мати одиначка, яка виховує двох дітей і намагається побороти алкогольну залежність. Щоб прогодувати свою сім'ю, вона влаштувалася офіціанткою в місцевий ресторан, де у неї зав'язалися стосунки з начальником Габріелем. Постійний тиск на неї надає власна мати, яка також є колишньою алкоголічкою. Крісті постійно стикається з проблемами в житті: старша дочка почала жити дорослим життям, колишній чоловік постійно намагається підставити її, новий коханець виявився одруженим. Крісті намагається у всьому поганому знайти щось хороше, що допомагає їй стати сильною людиною, яка готова пройти будь-які випробування, що виникають на її шляху


Тривалість: 1 серія: до 20 хв (цілком серій: 22)
Перелік серій
1 High-Tops and Brown Jacket
2 Sword Fights and a Dominican Shortstop
3 Sparkling Water & Ba-Dinkers
4 Curious George and the Big Red Nightmare
5 Blow and a Free McMuffin
6 Xanax and a Baby Duck
7 Cornbread and a Cashmere Onesie
8 Freckled Bananas and a Little Schwinn
9 Bad Hand and British Royalty
10 A Safe Word and a Rib Eye
11 Good Karma and the Big Weird
12 Wind Chimes and a Bottomless Pit of Sadness
13 A Bouncy Castle and an Aneursym
14 Roast Chicken and a Funny Story
15 Night Swimmin' and an English Muffin
16 Martinis and a Sponge Bath
17 Black Mold and an Old Hot Dog
18 Tush Push and Some Radishes
19 Tantric Sex and the Sprouted Flute
20 A Cricket and a Hedge Made of Gold
21 A Few Thongs and a Hawaiian Funeral
22 Lockjaw and a Liquid Diet
Якість:
Відео:
кодек:
розмір кадру: 1280 х 720
бітрейт: ~ 1000 кб/с

Аудіо:
мова: українська
переклад: багатоголосий закадровий /Paramount Comedy/
кодек: 2.0
бітрейт: 192 кб/с
Info
General:
Format : MPEG-4
Format profile : Base Media
Codec ID : isom (isom/iso2/avc1/mp41)
Duration : ~ 17-20 min.
Overall bit rate : 1159 Кбит/сек
Writing application : Lavf57.71.100

Video:
ID : 1
Format : AVC
Format/Info : Advanced Video Codec
Format profile : [email protected]
Format settings : CABAC / 4 Ref Frames
Format settings, CABAC : Yes
Format settings, Reference frames : 4 frames
Codec ID : avc1
Codec ID/Info : Advanced Video Coding
Duration : ~ 17-20 min
Bit rate : 960 kb/s
Width : 1 280 pixels
Height : 720 pixels
Display aspect ratio : 16:9
Frame rate mode : Constant
Frame rate : 25.000 FPS
Color space : YUV
Chroma subsampling : 4:2:0
Bit depth : 8 bits
Scan type : Progressive
Bits/(Pixel*Frame) : 0.042
Stream size : 122 MiB (83%)
Writing library : core 148 r2748 97eaef2

Audio:
ID : 2
Format : LC
Format/Info : Advanced Audio Codec Low Complexity
Codec ID : mp4a-40-2
Duration : 17 -20 min
Duration_LastFrame : -6 ms
Bit rate mode : Constant
Bit rate : 192 kb/s
Channel(s) : 2 channels
Channel layout : L R
Sampling rate : 44.1 kHz
Frame rate : 43.066 FPS (1024 SPF)
Compression mode : Lossy
Stream size : 24.4 MiB (17%)
Title : Paramount Comedy
Language : Ukrainian
Default : Yes
Alternate group : 1
Скріншоти

Джерело: &
Особиста оцінка: 8 - мені сподобалося



Бронзовий реліз (на рейтинг впливає 75% завантаженого)
 Трекер:    Зареєстрований   

Завантажити / скачати серіал українською



відео для новачків



 Зареєстрований:   2019-12-04 18:11
 Розмір:   3.23 GB 
 Оцінка серіалу:   10/10 (Голосів: 3)
   
vkrav4uk 
Свій


З нами з: 03.03.12
Востаннє: 10.12.19
Повідомлень: 51

2019-12-04 21:26  
ДЯКУЮ!!!
чудова новина для мене, чекав! =)

igor911 
Модератор відео


З нами з: 18.01.08
Востаннє: 10.12.19
Повідомлень: 13722

2019-12-05 08:28  
alex_ter_ua, треба дооформити реліз:
- додати звіт Info,
- вказати джерело озвучення (телеканал та звідки було взято українську доріжку),
- замінити скріншоти (вони мають бути у форматі png, бути оригінального розміру згідно Info)

alex_ter_ua 
Новенький


З нами з: 08.10.14
Востаннє: 10.12.19
Повідомлень: 7

2019-12-05 08:59  
Вітаю. Вибачаюсь. Сьогодні ввечері все поправлю щодо оформлення. Взагалі, це мій перший викладений торрент.
Ваш часовий пояс: GMT + 2 Години

Нова тема   Відповісти