Шахрайки з Волл-стріт / Hustlers (2019) Remux 1080p Ukr/Eng | Sub Eng

Нові коментарі

Нова тема   Відповісти
Автор Повідомлення
Anonymous 







2019-12-04 04:33  
Шахрайки з Волл-стріт / Hustlers (2019) Remux 1080p Ukr/Eng | Sub Eng


«Натхненний справжньою історією»



Жанр: драма, комедія, кримінальний
Країна: США



Кінокомпанія: Annapurna Pictures, Gloria Sanchez Productions, Nuyorican Productions
Режисер: Лорін Скафарія
Актори: Констанс Ву, Дженніфер Лопез, Джулія Стайлз, Кеке Палмер, Лілі Рейнхарт, Карді Бі, Мадлен Брюер, Трейс Лісетт

Сюжет:
Фільм розповість про команду метикованих колишніх працівниць стрип-клубу, які об'єднуються в банду, щоб помститися своїм клієнтам з Волл-стріт.


Тривалість: 01:50:06
Якість: Remux 1080p

Відео:
кодек:
розмір кадру: 1920x1080
бітрейт: 32700 кб/с

Аудіо # 1:
мова: українська
переклад: професійний дубльований
кодек: 2.0
бітрейт: 192 кб/с

Аудіо # 2:
мова: англійська
переклад: оригінал
кодек: 5.1
бітрейт: 448 кб/с

Аудіо # 3:
мова: англійська
переклад: оригінал
кодек: TrueHD + Atmos 7.1
бітрейт: 3545 кб/с

Субтитри: (SDH)
мова: англійська
тип: програмні (м'які)
формат: *.srt
Info
Код:
General
Complete name                            : Hustlers (2019) Remux 1080p [ukr,eng] [ViDeO_Hurtom].
Format                                   :
Format version                           : Version 4
File size                                : 28.4 GiB
Duration                                 : 1 h 50 min
Overall bit rate mode                    : Variable
Overall bit rate                         : 36.9 Mb/s
Encoded date                             : UTC 2019-12-04 02:08:41
Writing application                      : v30.1.0 ('Forever And More') 64-bit
Writing library                          : libebml v1.3.6 + v1.4.9
Cover                                    : Yes
Attachments                              : cover.jpg

Video
ID                                       : 1
Format                                   : AVC
Format/Info                              : Advanced Video Codec
Format profile                           : [email protected]
Format settings                          : CABAC / 4 Ref Frames
Format settings, CABAC                   : Yes
Format settings, RefFrames               : 4 frames
Codec ID                                 : V_MPEG4/ISO/AVC
Duration                                 : 1 h 50 min
Bit rate mode                            : Variable
Bit rate                                 : 32.7 Mb/s
Maximum bit rate                         : 36.5 Mb/s
Width                                    : 1 920 pixels
Height                                   : 1 080 pixels
Display aspect ratio                     : 16:9
Frame rate mode                          : Constant
Frame rate                               : 23.976 (24000/1001) FPS
Color space                              : YUV
Chroma subsampling                       : 4:2:0
Bit depth                                : 8 bits
Scan type                                : Progressive
Bits/(Pixel*Frame)                       : 0.657
Stream size                              : 25.1 GiB (88%)
Language                                 : English
Default                                  : Yes
Forced                                   : No

Audio #1
ID                                       : 2
Format                                   : AC-3
Format/Info                              : Audio Coding 3
Commercial name                          : Dolby Digital
Codec ID                                 : A_AC3
Duration                                 : 1 h 50 min
Bit rate mode                            : Constant
Bit rate                                 : 192 kb/s
Channel(s)                               : 2 channels
Channel layout                           : L R
Sampling rate                            : 48.0 kHz
Frame rate                               : 31.250 FPS (1536 SPF)
Bit depth                                : 16 bits
Compression mode                         : Lossy
Stream size                              : 151 MiB (1%)
Title                                    : , 2 ch, 192 Кбт/с
Language                                 : Ukrainian
Service kind                             : Complete Main
Default                                  : Yes
Forced                                   : No

Audio #2
ID                                       : 3
Format                                   : AC-3
Format/Info                              : Audio Coding 3
Commercial name                          : Dolby Digital
Codec ID                                 : A_AC3
Duration                                 : 1 h 50 min
Bit rate mode                            : Constant
Bit rate                                 : 448 kb/s
Channel(s)                               : 6 channels
Channel layout                           : L R C LFE Ls Rs
Sampling rate                            : 48.0 kHz
Frame rate                               : 31.250 FPS (1536 SPF)
Bit depth                                : 16 bits
Compression mode                         : Lossy
Stream size                              : 353 MiB (1%)
Title                                    : , 6 ch, 448 Кбт/с
Language                                 : English
Service kind                             : Complete Main
Default                                  : No
Forced                                   : No

Audio #3
ID                                       : 4
Format                                   : MLP FBA 16-ch
Format/Info                              : Meridian Lossless Packing FBA with 16-channel presentation
Commercial name                          : Dolby TrueHD with Dolby Atmos
Codec ID                                 : A_TRUEHD
Duration                                 : 1 h 50 min
Bit rate mode                            : Variable
Bit rate                                 : 3 545 kb/s
Maximum bit rate                         : 5 826 kb/s
Channel(s)                               : 8 channels
Channel layout                           : L R C LFE Ls Rs Lb Rb
Sampling rate                            : 48.0 kHz
Frame rate                               : 1 200.000 FPS (40 SPF)
Compression mode                         : Lossless
Stream size                              : 2.73 GiB (10%)
Title                                    : TrueHD, 8 ch, 3545 Кбт/с
Language                                 : English
Default                                  : No
Forced                                   : No
Number of dynamic objects                : 11
Bed channel count                        : 1 channel
Bed channel configuration                : LFE

Text
ID                                       : 5
Format                                   : UTF-8
Codec ID                                 : S_TEXT/UTF8
Codec ID/Info                            : UTF-8 Plain Text
Duration                                 : 1 h 49 min
Bit rate                                 : 82 b/s
Count of elements                        : 2021
Stream size                              : 65.6 KiB (0%)
Title                                    : SDH
Language                                 : English
Default                                  : No
Forced                                   : No

Menu
00:00:00.000                             : en:Chapter 1
00:05:09.017                             : en:Chapter 2
00:11:19.345                             : en:Chapter 3
00:15:04.821                             : en:Chapter 4
00:21:22.823                             : en:Chapter 5
00:24:47.736                             : en:Chapter 6
00:30:46.178                             : en:Chapter 7
00:35:16.698                             : en:Chapter 8
00:40:44.067                             : en:Chapter 9
00:45:31.979                             : en:Chapter 10
00:52:58.550                             : en:Chapter 11
01:00:36.758                             : en:Chapter 12
01:04:27.030                             : en:Chapter 13
01:10:08.287                             : en:Chapter 14
01:15:02.581                             : en:Chapter 15
01:20:53.724                             : en:Chapter 16
01:27:47.762                             : en:Chapter 17
01:32:23.329                             : en:Chapter 18
01:37:27.091                             : en:Chapter 19
01:42:29.977                             : en:Chapter 20
Скріншоти


Джерело:
Особиста оцінка: 0 - не дивився


Золотий реліз (завантажене не впливає на рейтинг)
 Трекер:    Зареєстрований   

Завантажити / скачати фільм українською



відео для новачків



 Зареєстрований:   2019-12-04 04:33
 Розмір:   28.4 GB 
 Оцінка фільму:   10/10 (Голосів: 3)
   
Інші релізи
Ваш часовий пояс: GMT + 2 Години

Нова тема   Відповісти