Манія величі / La folie des grandeurs (1971) Remux 1080p Ukr/Fre | Sub Fre/Eng

Нові коментарі

Нова тема   Відповісти
Автор Повідомлення
MakRA 
VIP


З нами з: 10.11.18
Востаннє: 10.12.19
Повідомлень: 593

2019-12-04 01:02  
Манія величі / La folie des grandeurs (1971) Remux 1080p Ukr/Fre | Sub Fre/Eng


Альтернативні обкладинки:


Жанр: пригодницький, комедія, історичний
Країна: Франція , Іспанія , Італія , Німеччина



Кінокомпанія: Gaumont International, Mars Film, Coral Films
Режисер: Жерар Урі [Gérard Oury]
Актори: Луї де Фюнес [Louis de Funes],Ів Монтан [Yves Montand], Еліс Сапріч [Alice Sapritch], Карін Шуберт [Karin Schubert], Альберто де Мендоса [Alberto de Mendoza], Габріель Тінті [Gabriele Tinti], Венантіно Венантіні [Venantino Venantini], Поль Пребуа [Paul Préboist]

Сюжет:
Іспанія, XVII століття. Дон Саллюстій, іспанський гранд і міністр з фінансів та податків при дворі іспанського короля Карлоса II, відстоює інтереси аристократів і душить податками бідняків. Одного разу, спокусивши фрейліну, він потрапляє в немилість до королеви Донни Марії, яка позбавляє його титулу, посади, стану і висилає з Мадрида. Бажаючи помститися їй за приниження, Саллюстій розробляє хитромудрий план ...

Цікаве про фільм та зйомки:

-П'єса Віктора Гюго «Рюи Блаз» була екранізована також у 1947 (1948) році з Жаном Маре в головній ролі і в 2002 році з Жераром Депардьє.
-Бурвіль, який повинен був виконати роль Блаза, помер ще до початку зйомок. Його замінив Ів Монтан.
-Однією з причин перенесення зйомок з Іспанії до Франції були політичні переконання Іва Монтана, який виступав проти диктатури Франсиско Франко.
-У СРСР фільм не був придбаний для прокату через забороненого свого часу Іва Монтана, який висловлював негативну критику на адресу СРСР після вторгнення радянських військ до Чехословаччини в 1968 році.


Тривалість: 01:49:05
Якість: Remux 1080p
Відео:
кодек:
розмір кадру: 1920 х 1080
бітрейт: 22 Mб/с

Аудіо # 1:
мова: українська
переклад: багатоголосий закадровий
кодек: 2.0
бітрейт: 192 кб/с

Аудіо # 2:
мова: французька
переклад: оригінал
кодек: -HD MA 2.0
бітрейт: 936 кб/с

Субтитри # 1: (SDH/Colored)
мова: французька
тип: пререндерні
формат: *.pgs

Субтитри # 2: (Full)
мова: англійська
тип: програмні (м'які)
формат: *.srt

Збережено оригінальні розділи, як на Blu-ray.
Info
General
Unique ID : 189457661167282661725686528268484323655 (0x8E8837E16E80D61AB765CB837699A947)
Complete name : I:\+Фільмографії- Луї Де Фюнес [Louis de Funès]\La folie des grandeurs (1971) Remux 1080p UkrFre Sub FreEng [Hurtom].
Format :
Format version : Version 4
File size : 17.6 GiB
Duration : 1 h 49 min
Overall bit rate mode : Variable
Overall bit rate : 23.1 Mb/s
Movie name : Манія величі / La folie des grandeurs (1971) Remux 1080p Ukr/Fre | Sub Fre/Eng [Hurtom]
Encoded date : UTC 2019-12-03 22:40:44
Writing application : v25.0.0 ('Prog Noir') 64-bit
Writing library : libebml v1.3.6 + v1.4.9
Cover : Yes
Attachments : cover.jpg / cover.jpg

Video
ID : 1
Format : AVC
Format/Info : Advanced Video Codec
Format profile : [email protected]
Format settings : CABAC / 4 Ref Frames
Format settings, CABAC : Yes
Format settings, Reference fra : 4 frames
Codec ID : V_MPEG4/ISO/AVC
Duration : 1 h 49 min
Bit rate mode : Variable
Bit rate : 22.0 Mb/s
Maximum bit rate : 36.0 Mb/s
Width : 1 920 pixels
Height : 1 080 pixels
Display aspect ratio : 16:9
Frame rate mode : Constant
Frame rate : 24.000 FPS
Color space : YUV
Chroma subsampling : 4:2:0
Bit depth : 8 bits
Scan type : Progressive
Bits/(Pixel*Frame) : 0.441
Stream size : 16.7 GiB (95%)
Title : La folie des grandeurs (1971) Remux 1080p Ukr/Fre | Sub Fre/Eng [Hurtom]
Language : Ukrainian
Default : Yes
Forced : Yes
Color range : Limited
Color primaries : BT.709
Transfer characteristics : BT.709
Matrix coefficients : BT.709

Audio #1
ID : 2
Format : AC-3
Format/Info : Audio Coding 3
Commercial name : Dolby Digital
Codec ID : A_AC3
Duration : 1 h 49 min
Bit rate mode : Constant
Bit rate : 192 kb/s
Channel(s) : 2 channels
Channel layout : L R
Sampling rate : 48.0 kHz
Frame rate : 31.250 FPS (1536 SPF)
Bit depth : 16 bits
Compression mode : Lossy
Stream size : 150 MiB (1%)
Title : MVO [ENTER] 2.0
Language : Ukrainian
Service kind : Complete Main
Default : Yes
Forced : Yes

Audio #2
ID : 3
Format : XLL
Format/Info : Digital Theater Systems
Commercial name : -HD Master Audio
Codec ID : A_DTS
Duration : 1 h 49 min
Bit rate mode : Variable
Bit rate : 936 kb/s
Channel(s) : 2 channels
Channel layout : L R
Sampling rate : 48.0 kHz
Frame rate : 93.750 FPS (512 SPF)
Bit depth : 16 bits
Compression mode : Lossless
Stream size : 731 MiB (4%)
Title : Original -HD MA 2.0
Language : French
Default : No
Forced : No

Text #1
ID : 4
Format : PGS
Muxing mode : zlib
Codec ID : S_HDMV/PGS
Codec ID/Info : Picture based subtitle format used on BDs/HD-DVDs
Duration : 1 h 47 min
Bit rate : 20.8 kb/s
Count of elements : 2884
Stream size : 16.0 MiB (0%)
Title : Fre (Full SDH-Colored)
Language : French
Default : No
Forced : No

Text #2
ID : 5
Format : UTF-8
Codec ID : S_TEXT/UTF8
Codec ID/Info : UTF-8 Plain Text
Duration : 1 h 42 min
Bit rate : 38 b/s
Count of elements : 1113
Stream size : 29.4 KiB (0%)
Title : Eng (Full)
Language : English
Default : No
Forced : No

Menu
00:00:00.000 : en:Chapter 1
00:10:24.666 : en:Chapter 2
00:19:55.166 : en:Chapter 3
00:28:31.416 : en:Chapter 4
00:38:50.833 : en:Chapter 5
00:51:04.916 : en:Chapter 6
00:59:05.083 : en:Chapter 7
01:05:02.875 : en:Chapter 8
01:19:42.166 : en:Chapter 9
01:24:16.166 : en:Chapter 10
01:28:24.375 : en:Chapter 11
01:44:06.041 : en:Chapter 12
Скріншоти
Джерело: &
Висловлюю подяку п. Tanat13 за запис з ТБ і п. patriot2305 за синхронізацію
Особиста оцінка: 10 - без зайвих вагань рекомендую всім!


Золотий реліз (завантажене не впливає на рейтинг)
 Трекер:    Зареєстрований   

Завантажити / скачати фільм українською



відео для новачків



 Зареєстрований:   2019-12-04 01:02
 Розмір:   17.61 GB 
 Оцінка фільму:   10/10 (Голосів: 6)
   
Інші релізи
   Манія величі / La folie des grandeurs (1971) 720p Ukr/Fre kino.  4 / 0   7.33 GB   2014-04-17 17:21 
   Манія величі / La folie des grandeurs (1971) patriot2305  4 / 0   1.43 GB   2014-04-15 20:53 
Ваш часовий пояс: GMT + 2 Години

Нова тема   Відповісти