Заморожений / Hibernatus (1969) Remux 1080p Ukr/Fre | Sub Fre/Eng

Нові коментарі

Нова тема   Відповісти
Автор Повідомлення
MakRA 
VIP


З нами з: 10.11.18
Востаннє: 11.12.19
Повідомлень: 597

2019-12-03 23:31  
Заморожений / Hibernatus (1969) Remux 1080p Ukr/Fre | Sub Fre/Eng


Альтернативні постери:


Жанр: комедія, фентезі, фантастика
Країна: Франція , Італія



Кінокомпанія: Gaumont International, Rizzoli Film
Режисер: Едуард Молінаро [Edouard Molinaro]
Актори:Луї де Ф'юнес [Louis de Funès],Клод Жансак [Claude Gensac], Мікаель Лонсдаль [Michael Lonsdale], Бернар Алан [Bernard Alane], Аннік Алан [Annick Alane], Олів'є Де Фюнес [Olivier De Funès]

Сюжет:
Справжня класика французької комедії про фантастичні пригоди людини з минулого у Франції кінця 1960-х років.

Життя промисловця Юбера де Тартас і його сім'ї проходило буденно до тих пір, поки не був знайдений дідусь дружини. Родича, який пролежав у крижаному полоні довгих 65 років, знаходять на півночі Гренландії замороженим і повертають до життя. І щоб не шокувати дідуся, сім'я де Тартас вирішує інсценувати навколо нього життя початку XX століття ...


Тривалість: 01:21:58
Якість: Remux 1080p
Відео:
кодек:
розмір кадру: 1920 х 1080
бітрейт: 30 Mб/с

Аудіо # 1:
мова: українська
переклад: багатоголосий закадровий
кодек: 2.0
бітрейт: 192 кб/с

Аудіо # 2:
мова: французька
переклад: оригінал
кодек: -HD MA 2.0
бітрейт: 945 кб/с

Аудіо # 3:
мова: французька
переклад: оригінал
кодек: 2.0
бітрейт: 192 кб/с

Субтитри # 1: (SDH/Colored)
мова: французька
тип: пререндерні
формат: *.pgs

Субтитри # 2: (Full)
мова: англійська
тип: пререндерні
формат: *.pgs

Збережено оригінальні розділи, як на Blu-ray.
Info
General
Unique ID : 117750664482069775989603417445328070695 (0x5895F3FC6114843AD7AEDAF608C1A827)
Complete name : I:\+Фільмографії- Луї Де Фюнес [Louis de Funès]\Hibernatus (1969) Remux 1080p UkrFre Sub FreEng [Hurtom].
Format :
Format version : Version 4
File size : 18.0 GiB
Duration : 1 h 21 min
Overall bit rate mode : Variable
Overall bit rate : 31.4 Mb/s
Movie name : Заморожений / Hibernatus (1969) Remux 1080p Ukr/Fre | Sub Fre/Eng [Hurtom]
Encoded date : UTC 2019-12-03 20:50:57
Writing application : v25.0.0 ('Prog Noir') 64-bit
Writing library : libebml v1.3.6 + v1.4.9
Cover : Yes
Attachments : cover.jpg

Video
ID : 1
Format : AVC
Format/Info : Advanced Video Codec
Format profile : [email protected]
Format settings : CABAC / 4 Ref Frames
Format settings, CABAC : Yes
Format settings, Reference fra : 4 frames
Format settings, GOP : M=3, N=24
Codec ID : V_MPEG4/ISO/AVC
Duration : 1 h 21 min
Bit rate mode : Variable
Bit rate : 30.0 Mb/s
Maximum bit rate : 35.0 Mb/s
Width : 1 920 pixels
Height : 1 080 pixels
Display aspect ratio : 16:9
Frame rate mode : Constant
Frame rate : 24.000 FPS
Standard : NTSC
Color space : YUV
Chroma subsampling : 4:2:0
Bit depth : 8 bits
Scan type : Progressive
Bits/(Pixel*Frame) : 0.603
Stream size : 17.2 GiB (96%)
Title : Hibernatus (1969) Remux 1080p Ukr/Fre | Sub Fre/Eng [Hurtom]
Language : Ukrainian
Default : Yes
Forced : Yes
Color range : Limited
Color primaries : BT.709
Transfer characteristics : BT.709
Matrix coefficients : BT.709

Audio #1
ID : 2
Format : AC-3
Format/Info : Audio Coding 3
Commercial name : Dolby Digital
Codec ID : A_AC3
Duration : 1 h 21 min
Bit rate mode : Constant
Bit rate : 192 kb/s
Channel(s) : 2 channels
Channel layout : L R
Sampling rate : 48.0 kHz
Frame rate : 31.250 FPS (1536 SPF)
Bit depth : 16 bits
Compression mode : Lossy
Stream size : 113 MiB (1%)
Title : MVO [ENTER] 2.0
Language : Ukrainian
Service kind : Complete Main
Default : Yes
Forced : Yes

Audio #2
ID : 3
Format : XLL
Format/Info : Digital Theater Systems
Commercial name : -HD Master Audio
Codec ID : A_DTS
Duration : 1 h 21 min
Bit rate mode : Variable
Bit rate : 945 kb/s
Channel(s) : 2 channels
Channel layout : L R
Sampling rate : 48.0 kHz
Frame rate : 93.750 FPS (512 SPF)
Bit depth : 16 bits
Compression mode : Lossless
Stream size : 554 MiB (3%)
Title : Original -HD MA 2.0
Language : French
Default : No
Forced : No

Audio #3
ID : 4
Format : AC-3
Format/Info : Audio Coding 3
Commercial name : Dolby Digital
Codec ID : A_AC3
Duration : 1 h 21 min
Bit rate mode : Constant
Bit rate : 192 kb/s
Channel(s) : 2 channels
Channel layout : L R
Sampling rate : 48.0 kHz
Frame rate : 31.250 FPS (1536 SPF)
Bit depth : 16 bits
Compression mode : Lossy
Stream size : 113 MiB (1%)
Title : Original 2.0
Language : French
Service kind : Complete Main
Default : No
Forced : No

Text #1
ID : 5
Format : PGS
Muxing mode : zlib
Codec ID : S_HDMV/PGS
Codec ID/Info : Picture based subtitle format used on BDs/HD-DVDs
Duration : 1 h 21 min
Bit rate : 31.7 kb/s
Count of elements : 2865
Stream size : 18.5 MiB (0%)
Title : Fre (Full SDH-Colored)
Language : French
Default : No
Forced : No

Text #2
ID : 6
Format : PGS
Muxing mode : zlib
Codec ID : S_HDMV/PGS
Codec ID/Info : Picture based subtitle format used on BDs/HD-DVDs
Duration : 1 h 20 min
Bit rate : 28.2 kb/s
Count of elements : 2036
Stream size : 16.2 MiB (0%)
Title : Eng (Full)
Language : English
Default : No
Forced : No

Menu
00:00:00.000 : en:Chapter 1
00:08:23.707 : en:Chapter 2
00:14:38.582 : en:Chapter 3
00:22:00.000 : en:Chapter 4
00:27:25.415 : en:Chapter 5
00:34:22.416 : en:Chapter 6
00:40:05.791 : en:Chapter 7
00:50:03.125 : en:Chapter 8
00:57:20.458 : en:Chapter 9
01:02:04.791 : en:Chapter 10
01:07:41.000 : en:Chapter 11
01:13:04.416 : en:Chapter 12
Скріншоти
Джерело: &
Висловлюю подяку п. slavik_v_z за запис з ТБ та п. patriot2305 за синхронізація
Особиста оцінка: 10 - без зайвих вагань рекомендую всім!


Золотий реліз (завантажене не впливає на рейтинг)
 Трекер:    Зареєстрований   

Завантажити / скачати фільм українською



відео для новачків



 Зареєстрований:   2019-12-03 23:31
 Розмір:   17.95 GB 
 Оцінка фільму:   10/10 (Голосів: 8)
   
Інші релізи
   Заморожений / Hibernatus (1969) 720p Ukr/Fre kino.  2 / 0   6.72 GB   2015-01-12 17:31 
   Заморожений / Hibernatus (1969) Ukr/Fra patriot2305  3 / 0   1.45 GB   2015-01-07 20:14 
Ваш часовий пояс: GMT + 2 Години

Нова тема   Відповісти