Таксі. Колекція / Taxi. Collection (1998-2018) 1080p H.265 Ukr/Fre | Sub Eng/Fre

Нові коментарі

Нова тема   Відповісти
Автор Повідомлення
Anonymous 







2019-12-03 22:32  
Таксі. Колекція / Taxi. Collection (1998-2018) 1080p H.265 Ukr/Fre | Sub Eng/Fre

Таксі. Колекція / Taxi. Collection (1998-2018) 1080p H.265 Ukr/Fre | Sub Eng/Fre

1. 2. 3. 4. 5.

1. Таксі / Taxi (1998) 1080p H.265 3xUkr/Fre | Sub Fre/Eng
Таксі / Taxi (1998) 1080p H.265 3xUkr/Fre | Sub Fre/Eng

Таксі. Колекція / Taxi. Collection (1998-2018) 1080p H.265 Ukr/Fre | Sub Eng/Fre


Жанр: бойовик, комедія, кримінальний
Країна: Франція
Кінокомпанія: EuropaCorp, ARP Sélection, Apipoula
Режисер: Жерар Кравчик / Gerard Krawczyk
Актори: Самі Насері /Samy Naceri/, Фредерік Дюфенталь /Frederic Diefenthal/, Бернар Фарсі /Bernard Farcy/, Емма Сьоберг /Emma Sjoberg/, Маріон Котіяр /Marion Cotillard/, Едуард Монтут /Edouard Montoute/, Сільвестр Сталлоне /Sylvester Stallone

Сюжет:
Молодий таксист Даніель помішаний на швидкій їзді. Як ураган носиться він по звивистих вулицях Марселя на своєму потужно ревучому звірі "Пежо", лякаючи пасажирів та прохожих. Непідкупний поліцейський Емільєн примушує його допомогти в затримці банди грабіжників, що втікають від поліції на своїх невловимих "Мерседесах". І до самого кінця не зрозуміло, хто зможе втриматись на крутому віражі...

Тривалість: 01:29:50
Якість:

Відео:
кодек: H.265 (HEVC)
розмір кадру: 1920 x 816
бітрейт: 13 529 кб/с
бітова глибина: 10 біт

Увага! Перед завантаженням переконайтесь, що ваш пристрій відтворення (та/або ПЗ) підтримує H.265 (HEVC)

Аудіо # 1:
мова: українська
переклад: багатоголосий закадровий
кодек: AC-3 2.0
бітрейт: 192 кб/с

Аудіо # 2:
мова: українська
переклад: двоголосий закадровий
кодек: AC-3 2.0
бітрейт: 192 кб/с

Аудіо # 3:
мова: українська
переклад: багатоголосий закадровий
кодек: AC-3 2.0
бітрейт: 192 кб/с

Аудіо # 4:
мова: французька
переклад: оригінал
кодек: 5.1
бітрейт: 1510 кб/с

Субтитри # 1: (Full)
мова: французька
тип: програмні (м'які)
формат: *.srt

Субтитри # 2: (Full)
мова: англійська
тип: програмні (м'які)
формат: *.srt


Info
Код:
General
Unique ID                                : 172326822270548255121822652272129700742 (0x81A4F05029CCD64B3B97C173B9997386)
Complete name                            : 1. Taxi (1998) 1080p H.265 [3xUKR_FRE] [Hurtom].
Format                                   :
Format version                           : Version 4
File size                                : 9.80 GiB
Duration                                 : 1 h 29 min
Overall bit rate                         : 15.6 Mb/s
Movie name                               : Таксі / Taxi (1998)
Encoded date                             : UTC 2019-11-17 14:16:01
Writing application                      : v20.0.0 ('I Am The Sun') 64-bit
Writing library                          : libebml v1.3.5 + v1.4.8
Cover                                    : Yes
Attachments                              : Cover.jpg

Video
ID                                       : 1
Format                                   : HEVC
Format/Info                              : High Efficiency Video Coding
Format profile                           : Main [email protected]@High
Codec ID                                 : V_MPEGH/ISO/HEVC
Duration                                 : 1 h 29 min
Bit rate                                 : 13.5 Mb/s
Width                                    : 1 920 pixels
Height                                   : 816 pixels
Display aspect ratio                     : 2.35:1
Frame rate mode                          : Constant
Frame rate                               : 23.976 (24000/1001) FPS
Color space                              : YUV
Chroma subsampling                       : 4:2:0
Bit depth                                : 10 bits
Bits/(Pixel*Frame)                       : 0.360
Stream size                              : 8.49 GiB (87%)
Title                                    : Таксі / Taxi (1998)
Writing library                          : x265 3.1+7-147fb92c5ed5:[Windows][clang 8.0.0][64 bit] 10bit
Encoding settings                        : cpuid=1111039 / frame-threads=13 / wpp / no-pmode / no-pme / no-psnr / no-ssim / log-level=3 / input-csp=1 / input-res=1920x816 / interlace=0 / total-frames=0 / level-idc=41 / high-tier=1 / uhd-bd=0 / ref=5 / allow-non-conformance / no-repeat-headers / annexb / no-aud / no-hrd / info / hash=0 / no-temporal-layers / open-gop / min-keyint=23 / keyint=240 / gop-lookahead=0 / bframes=8 / b-adapt=2 / b-pyramid / bframe-bias=0 / rc-lookahead=60 / lookahead-slices=4 / scenecut=60 / radl=0 / no-splice / no-intra-refresh / ctu=64 / min-cu-size=8 / rect / amp / max-tu-size=32 / tu-inter-depth=4 / tu-intra-depth=4 / limit-tu=4 / rdoq-level=2 / dynamic-rd=0.00 / no-ssim-rd / signhide / no-tskip / nr-intra=0 / nr-inter=0 / no-constrained-intra / no-strong-intra-smoothing / max-merge=5 / limit-refs=1 / limit-modes / me=3 / subme=7 / merange=57 / temporal-mvp / no-hme / weightp / weightb / no-analyze-src-pics / deblock=-3:-3 / no-sao / no-sao-non-deblock / rd=6 / no-early-skip / no-rskip / no-fast-intra / no-tskip-fast / no-cu-lossless / b-intra / no-splitrd-skip / rdpenalty=0 / psy-rd=2.00 / psy-rdoq=1.00 / no-rd-refine / no-lossless / cbqpoffs=0 / crqpoffs=0 / rc=crf / crf=19.5 / qcomp=0.60 / qpstep=4 / stats-write=0 / stats-read=0 / vbv-maxrate=50000 / vbv-bufsize=50000 / vbv-init=0.9 / crf-max=30.0 / crf-min=0.0 / ipratio=1.40 / pbratio=1.30 / aq-mode=2 / aq-strength=1.00 / no-cutree / zone-count=0 / no-strict-cbr / qg-size=32 / no-rc-grain / qpmax=69 / qpmin=0 / no-const-vbv / sar=1 / overscan=0 / videoformat=5 / range=0 / colorprim=1 / transfer=1 / colormatrix=1 / chromaloc=0 / display-window=0cll=0,0 / min-luma=0 / max-luma=1023 / log2-max-poc-lsb=8 / vui-timing-info / vui-hrd-info / slices=1 / no-opt-qp-pps / no-opt-ref-list-length-pps / no-multi-pass-opt-rps / scenecut-bias=0.05 / no-opt-cu-delta-qp / no-aq-motion / no-hdr / no-hdr-opt / no-dhdr10-opt / no-idr-recovery-sei / analysis-reuse-level=5 / scale-factor=0 / refine-intra=0 / refine-inter=0 / refine-mv=0 / refine-ctu-distortion=0 / no-limit-sao / ctu-info=0 / no-lowpass-dct / refine-analysis-type=1479803606 / copy-pic=1 / max-ausize-factor=1.0 / no-dynamic-refine / no-single-sei / no-hevc-aq / no-svt / no-field / qp-adaptation-range=1.00
Default                                  : Yes
Forced                                   : No
Color range                              : Limited
Color primaries                          : BT.709
Transfer characteristics                 : BT.709
Matrix coefficients                      : BT.709

Audio #1
ID                                       : 2
Format                                   : AC-3
Format/Info                              : Audio Coding 3
Commercial name                          : Dolby Digital
Codec ID                                 : A_AC3
Duration                                 : 1 h 29 min
Bit rate mode                            : Constant
Bit rate                                 : 192 kb/s
Channel(s)                               : 2 channels
Channel layout                           : L R
Sampling rate                            : 48.0 kHz
Frame rate                               : 31.250 FPS (1536 SPF)
Bit depth                                : 16 bits
Compression mode                         : Lossy
Stream size                              : 123 MiB (1%)
Title                                    : / 2.0 Ch / 192 kbps / БЗ / Novy Kanal
Language                                 : Ukrainian
Service kind                             : Complete Main
Default                                  : Yes
Forced                                   : Yes

Audio #2
ID                                       : 3
Format                                   : AC-3
Format/Info                              : Audio Coding 3
Commercial name                          : Dolby Digital
Codec ID                                 : A_AC3
Duration                                 : 1 h 29 min
Bit rate mode                            : Constant
Bit rate                                 : 192 kb/s
Channel(s)                               : 2 channels
Channel layout                           : L R
Sampling rate                            : 48.0 kHz
Frame rate                               : 31.250 FPS (1536 SPF)
Bit depth                                : 16 bits
Compression mode                         : Lossy
Stream size                              : 123 MiB (1%)
Title                                    : / 2.0 Ch / 192 kbps / ДЗ / 1+1
Language                                 : Ukrainian
Service kind                             : Complete Main
Default                                  : No
Forced                                   : No

Audio #3
ID                                       : 4
Format                                   : AC-3
Format/Info                              : Audio Coding 3
Commercial name                          : Dolby Digital
Codec ID                                 : A_AC3
Duration                                 : 1 h 29 min
Bit rate mode                            : Constant
Bit rate                                 : 192 kb/s
Channel(s)                               : 2 channels
Channel layout                           : L R
Sampling rate                            : 48.0 kHz
Frame rate                               : 31.250 FPS (1536 SPF)
Bit depth                                : 16 bits
Compression mode                         : Lossy
Stream size                              : 123 MiB (1%)
Title                                    : / 2.0 Ch / 192 kbps / БЗ / ICTV
Language                                 : Ukrainian
Service kind                             : Complete Main
Default                                  : No
Forced                                   : No

Audio #4
ID                                       : 5
Format                                   :
Format/Info                              : Digital Theater Systems
Codec ID                                 : A_DTS
Duration                                 : 1 h 29 min
Bit rate mode                            : Constant
Bit rate                                 : 1 509 kb/s
Channel(s)                               : 6 channels
Channel layout                           : C L R Ls Rs LFE
Sampling rate                            : 48.0 kHz
Frame rate                               : 93.750 FPS (512 SPF)
Bit depth                                : 16 bits
Compression mode                         : Lossy
Stream size                              : 970 MiB (10%)
Title                                    : / 5.1 Ch / 1509 kbps / Original
Language                                 : French
Default                                  : No
Forced                                   : No

Text #1
ID                                       : 6
Format                                   : UTF-8
Codec ID                                 : S_TEXT/UTF8
Codec ID/Info                            : UTF-8 Plain Text
Duration                                 : 1 h 28 min
Bit rate                                 : 73 b/s
Count of elements                        : 1391
Stream size                              : 47.8 KiB (0%)
Title                                    : Full
Language                                 : French
Default                                  : Yes
Forced                                   : No

Text #2
ID                                       : 7
Format                                   : UTF-8
Codec ID                                 : S_TEXT/UTF8
Codec ID/Info                            : UTF-8 Plain Text
Duration                                 : 1 h 23 min
Bit rate                                 : 54 b/s
Count of elements                        : 1140
Stream size                              : 33.4 KiB (0%)
Title                                    : Full
Language                                 : English
Default                                  : No
Forced                                   : No

Menu
00:00:00.000                             : fr:00:00:00.000
00:07:14.559                             : fr:00:07:14.559
00:13:02.364                             : fr:00:13:02.364
00:17:40.768                             : fr:00:17:40.768
00:21:46.013                             : fr:00:21:46.013
00:28:42.887                             : fr:00:28:42.887
00:34:32.779                             : fr:00:34:32.779
00:38:56.333                             : fr:00:38:56.333
00:47:43.569                             : fr:00:47:43.569
00:53:46.348                             : fr:00:53:46.348
00:58:44.479                             : fr:00:58:44.479
01:04:58.561                             : fr:01:04:58.561
01:09:08.769                             : fr:01:09:08.769
01:11:46.093                             : fr:01:11:46.093
01:21:48.278                             : fr:01:21:48.278
01:25:22.617                             : fr:01:25:22.617
Світлини



2. Таксі 2 / Taxi 2 (2000) 1080p H.265 2xUkr/Fre | Sub Fre/Eng
Таксі 2 / Taxi 2 (2000) 1080p H.265 2xUkr/Fre | Sub Fre/Eng

Таксі. Колекція / Taxi. Collection (1998-2018) 1080p H.265 Ukr/Fre | Sub Eng/Fre


Жанр: бойовик, комедія, кримінальний
Країна: Франція
Кінокомпанія: ARP Sélection, Canal+, Leeloo Productions
Режисер: Жерар Кравчик / Gerard Krawczyk
Актори: Бернар Фарсі /Bernard Farcy/, Самі Насері /Samy Naceri/, Фредерік Дюфенталь /Frederic Diefenthal/, Маріон Котіяр /Marion Cotillard/, Емма Сьоберг /Emma Sjoberg

Сюжет:
У Францію прибуває міністр оборони Японії. Ціль його візиту – познайомитись з французьким досвідом боротьби з тероризмом і підписати "контракт століття" про взаємне співробітництво. Несподівано під час показових виступів французької поліції, міністра оборони викрадає гангстерська група "Якудза", бажаюча зірвати підписання найважливішого контракту. Даніель та Емільєн направляються на пошуки високого гостя. В справу вступає вже добре відоме таксі…

Тривалість: 01:28:25
Якість:

Відео:
кодек: H.265 (HEVC)
розмір кадру: 1920 x 816
бітрейт: 13 435 кб/с
бітова глибина: 10 біт

Увага! Перед завантаженням переконайтесь, що ваш пристрій відтворення (та/або ПЗ) підтримує H.265 (HEVC)

Аудіо # 1:
мова: українська
переклад: багатоголосий закадровий
кодек: AC-3 2.0
бітрейт: 192 кб/с

Аудіо # 2:
мова: українська
переклад: двоголосий закадровий
кодек: AC-3 2.0
бітрейт: 192 кб/с

Аудіо # 3:
мова: французька
переклад: оригінал
кодек: 5.1
бітрейт: 1510 кб/с

Субтитри # 1: (Full)
мова: французька
тип: програмні (м'які)
формат: *.srt

Субтитри # 2: (Full)
мова: англійська
тип: програмні (м'які)
формат: *.srt


Info
Код:
General
Unique ID                                : 44423385250357558705939017051233066186 (0x216BA1FE6CDDE66BE9CF8D8000EC1CCA)
Complete name                            : 2. Taxi 2 (2000) 1080p H.265 [2xUKR_FRE] [Hurtom].
Format                                   :
Format version                           : Version 4
File size                                : 9.47 GiB
Duration                                 : 1 h 28 min
Overall bit rate                         : 15.3 Mb/s
Movie name                               : Таксі 2 / Taxi 2 (2000)
Encoded date                             : UTC 2019-11-26 20:58:41
Writing application                      : v20.0.0 ('I Am The Sun') 64-bit
Writing library                          : libebml v1.3.5 + v1.4.8
Cover                                    : Yes
Attachments                              : Cover.jpg

Video
ID                                       : 1
Format                                   : HEVC
Format/Info                              : High Efficiency Video Coding
Format profile                           : Main [email protected]@High
Codec ID                                 : V_MPEGH/ISO/HEVC
Duration                                 : 1 h 28 min
Bit rate                                 : 13.4 Mb/s
Width                                    : 1 920 pixels
Height                                   : 816 pixels
Display aspect ratio                     : 2.35:1
Frame rate mode                          : Constant
Frame rate                               : 24.000 FPS
Color space                              : YUV
Chroma subsampling                       : 4:2:0
Bit depth                                : 10 bits
Bits/(Pixel*Frame)                       : 0.357
Stream size                              : 8.30 GiB (88%)
Title                                    : Таксі 2 / Taxi 2 (2000)
Writing library                          : x265 3.1+7-147fb92c5ed5:[Windows][clang 8.0.0][64 bit] 10bit
Encoding settings                        : cpuid=1111039 / frame-threads=13 / wpp / no-pmode / no-pme / no-psnr / no-ssim / log-level=3 / input-csp=1 / input-res=1920x816 / interlace=0 / total-frames=0 / level-idc=41 / high-tier=1 / uhd-bd=0 / ref=5 / allow-non-conformance / no-repeat-headers / annexb / no-aud / no-hrd / info / hash=0 / no-temporal-layers / open-gop / min-keyint=23 / keyint=240 / gop-lookahead=0 / bframes=8 / b-adapt=2 / b-pyramid / bframe-bias=0 / rc-lookahead=60 / lookahead-slices=4 / scenecut=60 / radl=0 / no-splice / no-intra-refresh / ctu=64 / min-cu-size=8 / rect / amp / max-tu-size=32 / tu-inter-depth=4 / tu-intra-depth=4 / limit-tu=4 / rdoq-level=2 / dynamic-rd=0.00 / no-ssim-rd / signhide / no-tskip / nr-intra=0 / nr-inter=0 / no-constrained-intra / no-strong-intra-smoothing / max-merge=5 / limit-refs=1 / limit-modes / me=3 / subme=7 / merange=57 / temporal-mvp / no-hme / weightp / weightb / no-analyze-src-pics / deblock=-3:-3 / no-sao / no-sao-non-deblock / rd=6 / no-early-skip / no-rskip / no-fast-intra / no-tskip-fast / no-cu-lossless / b-intra / no-splitrd-skip / rdpenalty=0 / psy-rd=2.00 / psy-rdoq=1.00 / no-rd-refine / no-lossless / cbqpoffs=0 / crqpoffs=0 / rc=crf / crf=20.0 / qcomp=0.60 / qpstep=4 / stats-write=0 / stats-read=0 / vbv-maxrate=50000 / vbv-bufsize=50000 / vbv-init=0.9 / crf-max=30.0 / crf-min=0.0 / ipratio=1.40 / pbratio=1.30 / aq-mode=2 / aq-strength=1.00 / no-cutree / zone-count=0 / no-strict-cbr / qg-size=32 / no-rc-grain / qpmax=69 / qpmin=0 / no-const-vbv / sar=1 / overscan=0 / videoformat=5 / range=0 / colorprim=1 / transfer=1 / colormatrix=1 / chromaloc=0 / display-window=0cll=0,0 / min-luma=0 / max-luma=1023 / log2-max-poc-lsb=8 / vui-timing-info / vui-hrd-info / slices=1 / no-opt-qp-pps / no-opt-ref-list-length-pps / no-multi-pass-opt-rps / scenecut-bias=0.05 / no-opt-cu-delta-qp / no-aq-motion / no-hdr / no-hdr-opt / no-dhdr10-opt / no-idr-recovery-sei / analysis-reuse-level=5 / scale-factor=0 / refine-intra=0 / refine-inter=0 / refine-mv=0 / refine-ctu-distortion=0 / no-limit-sao / ctu-info=0 / no-lowpass-dct / refine-analysis-type=259 / copy-pic=1 / max-ausize-factor=1.0 / no-dynamic-refine / no-single-sei / no-hevc-aq / no-svt / no-field / qp-adaptation-range=1.00
Default                                  : Yes
Forced                                   : No
Color range                              : Limited
Color primaries                          : BT.709
Transfer characteristics                 : BT.709
Matrix coefficients                      : BT.709

Audio #1
ID                                       : 2
Format                                   : AC-3
Format/Info                              : Audio Coding 3
Commercial name                          : Dolby Digital
Codec ID                                 : A_AC3
Duration                                 : 1 h 28 min
Bit rate mode                            : Constant
Bit rate                                 : 192 kb/s
Channel(s)                               : 2 channels
Channel layout                           : L R
Sampling rate                            : 48.0 kHz
Frame rate                               : 31.250 FPS (1536 SPF)
Bit depth                                : 16 bits
Compression mode                         : Lossy
Stream size                              : 121 MiB (1%)
Title                                    : / 2.0 Ch / 192 kbps / БЗ / Novy Kanal
Language                                 : Ukrainian
Service kind                             : Complete Main
Default                                  : Yes
Forced                                   : Yes

Audio #2
ID                                       : 3
Format                                   : AC-3
Format/Info                              : Audio Coding 3
Commercial name                          : Dolby Digital
Codec ID                                 : A_AC3
Duration                                 : 1 h 28 min
Bit rate mode                            : Constant
Bit rate                                 : 192 kb/s
Channel(s)                               : 2 channels
Channel layout                           : L R
Sampling rate                            : 48.0 kHz
Frame rate                               : 31.250 FPS (1536 SPF)
Bit depth                                : 16 bits
Compression mode                         : Lossy
Stream size                              : 121 MiB (1%)
Title                                    : / 2.0 Ch / 192 kbps / ДЗ / 1+1
Language                                 : Ukrainian
Service kind                             : Complete Main
Default                                  : No
Forced                                   : No

Audio #3
ID                                       : 4
Format                                   :
Format/Info                              : Digital Theater Systems
Codec ID                                 : A_DTS
Duration                                 : 1 h 28 min
Bit rate mode                            : Constant
Bit rate                                 : 1 509 kb/s
Channel(s)                               : 6 channels
Channel layout                           : C L R Ls Rs LFE
Sampling rate                            : 48.0 kHz
Frame rate                               : 93.750 FPS (512 SPF)
Bit depth                                : 16 bits
Compression mode                         : Lossy
Stream size                              : 953 MiB (10%)
Title                                    : / 5.1 Ch / 1509 kbps / Original
Language                                 : French
Default                                  : No
Forced                                   : No

Text #1
ID                                       : 5
Format                                   : UTF-8
Codec ID                                 : S_TEXT/UTF8
Codec ID/Info                            : UTF-8 Plain Text
Duration                                 : 1 h 21 min
Bit rate                                 : 74 b/s
Count of elements                        : 995
Stream size                              : 44.1 KiB (0%)
Title                                    : Full
Language                                 : French
Default                                  : Yes
Forced                                   : No

Text #2
ID                                       : 6
Format                                   : UTF-8
Codec ID                                 : S_TEXT/UTF8
Codec ID/Info                            : UTF-8 Plain Text
Duration                                 : 1 h 21 min
Bit rate                                 : 63 b/s
Count of elements                        : 997
Stream size                              : 37.9 KiB (0%)
Title                                    : Full
Language                                 : English
Default                                  : No
Forced                                   : No

Menu
00:00:00.000                             : :Chapter 1
00:13:05.333                             : :Chapter 2
00:22:59.624                             : :Chapter 3
00:30:57.583                             : :Chapter 4
00:35:25.124                             : :Chapter 5
00:43:36.124                             : :Chapter 6
00:54:01.083                             : :Chapter 7
01:01:25.666                             : :Chapter 8
01:10:19.874                             : :Chapter 9
01:17:17.666                             : :Chapter 10
01:21:10.416                             : :Chapter 11
01:26:38.124                             : :Chapter 12
Світлини



3. Таксі 3 / Taxi 3 (2003) 1080p H.265 Ukr/Fre | Sub Fre/Eng
Таксі 3 / Taxi 3 (2003) 1080p H.265 Ukr/Fre | Sub Fre/Eng

Таксі. Колекція / Taxi. Collection (1998-2018) 1080p H.265 Ukr/Fre | Sub Eng/Fre


Жанр: бойовик, комедія, кримінальний
Країна: Франція
Кінокомпанія: EuropaCorp, ARP Sélection, Apipoula
Режисер: Жерар Кравчик / Gerard Krawczyk
Актори: Самі Насері /Samy Naceri/, Фредерік Дюфенталь /Frederic Diefenthal/, Бернар Фарсі /Bernard Farcy/, Емма Сьоберг /Emma Sjoberg/, Маріон Котіяр /Marion Cotillard/, Едуард Монтут /Edouard Montoute/, Сільвестр Сталлоне /Sylvester Stallone/

Сюжет:
Марсель знову в небезпеці! Напередодні Різдва міські банки грабують переодягнені в Санта-Клаусів злочинці. Поліцейські перевіряють всіх підозрілих дідів Морозів, але не можуть знайти серед них злодіїв. Тоді шеф марсельської поліції Жибер пропонує провести великомасштабну операцію, щоби захопити злочинців в їх лігві. Проте навряд чи вона закінчилась би успіхом, якби не таксист Даніель і його друг, поліцейський Емільєн. Саме з їх допомогою була викрита китайська журналістка Ку, що передавала дані "Санта-Клаусам". Злодії намагаються через Альпи перебратися в Швейцарію, але марсельські копи, на чолі з Даніелем и Емільєном, переслідують їх по слідах...

Тривалість: 01:27:20
Якість:

Відео:
кодек: H.265 (HEVC)
розмір кадру: 1920 x 816
бітрейт: 10 412 кб/с
бітова глибина: 10 біт

Увага! Перед завантаженням переконайтесь, що ваш пристрій відтворення (та/або ПЗ) підтримує H.265 (HEVC)

Аудіо # 1:
мова: українська
переклад: багатоголосий закадровий ,
кодек: AC-3 2.0
бітрейт: 192 кб/с

Аудіо # 2:
мова: французька
переклад: оригінал
кодек: 5.1
бітрейт: 1510 кб/с

Субтитри # 1: (Full)
мова: французька
тип: програмні (м'які)
формат: *.srt

Субтитри # 2: (Full)
мова: англійська
тип: програмні (м'які)
формат: *.srt


Info
Код:
General
Unique ID                                : 194070937451297311440775768950494012521 (0x9200B3F651986DF852661E25FB392469)
Complete name                            : 3. Taxi 3 (2003) 1080p H.265 [UKR_FRE] [Hurtom].
Format                                   :
Format version                           : Version 4
File size                                : 7.39 GiB
Duration                                 : 1 h 27 min
Overall bit rate                         : 12.1 Mb/s
Movie name                               : Таксі 3 / Taxi 3 (2003)
Encoded date                             : UTC 2019-11-26 21:45:07
Writing application                      : v20.0.0 ('I Am The Sun') 64-bit
Writing library                          : libebml v1.3.5 + v1.4.8
Cover                                    : Yes
Attachments                              : Cover.jpg

Video
ID                                       : 1
Format                                   : HEVC
Format/Info                              : High Efficiency Video Coding
Format profile                           : Main [email protected]@High
Codec ID                                 : V_MPEGH/ISO/HEVC
Duration                                 : 1 h 27 min
Bit rate                                 : 10.4 Mb/s
Width                                    : 1 920 pixels
Height                                   : 816 pixels
Display aspect ratio                     : 2.35:1
Frame rate mode                          : Constant
Frame rate                               : 23.976 (24000/1001) FPS
Color space                              : YUV
Chroma subsampling                       : 4:2:0
Bit depth                                : 10 bits
Bits/(Pixel*Frame)                       : 0.277
Stream size                              : 6.35 GiB (86%)
Title                                    : Таксі 3 / Taxi 3 (2003)
Writing library                          : x265 3.1+7-147fb92c5ed5:[Windows][clang 8.0.0][64 bit] 10bit
Encoding settings                        : cpuid=1111039 / frame-threads=13 / wpp / no-pmode / no-pme / no-psnr / no-ssim / log-level=3 / input-csp=1 / input-res=1920x816 / interlace=0 / total-frames=0 / level-idc=41 / high-tier=1 / uhd-bd=0 / ref=5 / allow-non-conformance / no-repeat-headers / annexb / no-aud / no-hrd / info / hash=0 / no-temporal-layers / open-gop / min-keyint=23 / keyint=240 / gop-lookahead=0 / bframes=8 / b-adapt=2 / b-pyramid / bframe-bias=0 / rc-lookahead=60 / lookahead-slices=4 / scenecut=60 / radl=0 / no-splice / no-intra-refresh / ctu=64 / min-cu-size=8 / rect / amp / max-tu-size=32 / tu-inter-depth=4 / tu-intra-depth=4 / limit-tu=4 / rdoq-level=2 / dynamic-rd=0.00 / no-ssim-rd / signhide / no-tskip / nr-intra=0 / nr-inter=0 / no-constrained-intra / no-strong-intra-smoothing / max-merge=5 / limit-refs=1 / limit-modes / me=3 / subme=7 / merange=57 / temporal-mvp / no-hme / weightp / weightb / no-analyze-src-pics / deblock=-3:-3 / no-sao / no-sao-non-deblock / rd=6 / no-early-skip / no-rskip / no-fast-intra / no-tskip-fast / no-cu-lossless / b-intra / no-splitrd-skip / rdpenalty=0 / psy-rd=2.00 / psy-rdoq=1.00 / no-rd-refine / no-lossless / cbqpoffs=0 / crqpoffs=0 / rc=crf / crf=19.5 / qcomp=0.60 / qpstep=4 / stats-write=0 / stats-read=0 / vbv-maxrate=50000 / vbv-bufsize=50000 / vbv-init=0.9 / crf-max=30.0 / crf-min=0.0 / ipratio=1.40 / pbratio=1.30 / aq-mode=2 / aq-strength=1.00 / no-cutree / zone-count=0 / no-strict-cbr / qg-size=32 / no-rc-grain / qpmax=69 / qpmin=0 / no-const-vbv / sar=1 / overscan=0 / videoformat=5 / range=0 / colorprim=1 / transfer=1 / colormatrix=1 / chromaloc=0 / display-window=0cll=0,0 / min-luma=0 / max-luma=1023 / log2-max-poc-lsb=8 / vui-timing-info / vui-hrd-info / slices=1 / no-opt-qp-pps / no-opt-ref-list-length-pps / no-multi-pass-opt-rps / scenecut-bias=0.05 / no-opt-cu-delta-qp / no-aq-motion / no-hdr / no-hdr-opt / no-dhdr10-opt / no-idr-recovery-sei / analysis-reuse-level=5 / scale-factor=0 / refine-intra=0 / refine-inter=0 / refine-mv=0 / refine-ctu-distortion=0 / no-limit-sao / ctu-info=0 / no-lowpass-dct / refine-analysis-type=267 / copy-pic=1 / max-ausize-factor=1.0 / no-dynamic-refine / no-single-sei / no-hevc-aq / no-svt / no-field / qp-adaptation-range=1.00
Default                                  : Yes
Forced                                   : No
Color range                              : Limited
Color primaries                          : BT.709
Transfer characteristics                 : BT.709
Matrix coefficients                      : BT.709

Audio #1
ID                                       : 2
Format                                   : AC-3
Format/Info                              : Audio Coding 3
Commercial name                          : Dolby Digital
Codec ID                                 : A_AC3
Duration                                 : 1 h 27 min
Bit rate mode                            : Constant
Bit rate                                 : 192 kb/s
Channel(s)                               : 2 channels
Channel layout                           : L R
Sampling rate                            : 48.0 kHz
Frame rate                               : 31.250 FPS (1536 SPF)
Bit depth                                : 16 bits
Compression mode                         : Lossy
Stream size                              : 120 MiB (2%)
Title                                    : / 2.0 Ch / 192 kbps / БЗ / Novy Kanal, ICTV
Language                                 : Ukrainian
Service kind                             : Complete Main
Default                                  : Yes
Forced                                   : Yes

Audio #2
ID                                       : 3
Format                                   :
Format/Info                              : Digital Theater Systems
Codec ID                                 : A_DTS
Duration                                 : 1 h 27 min
Bit rate mode                            : Constant
Bit rate                                 : 1 509 kb/s
Channel(s)                               : 6 channels
Channel layout                           : C L R Ls Rs LFE
Sampling rate                            : 48.0 kHz
Frame rate                               : 93.750 FPS (512 SPF)
Bit depth                                : 16 bits
Compression mode                         : Lossy
Stream size                              : 944 MiB (12%)
Title                                    : / 5.1 Ch / 1509 kbps / Original
Language                                 : French
Default                                  : No
Forced                                   : No

Text #1
ID                                       : 4
Format                                   : UTF-8
Codec ID                                 : S_TEXT/UTF8
Codec ID/Info                            : UTF-8 Plain Text
Duration                                 : 1 h 18 min
Bit rate                                 : 72 b/s
Count of elements                        : 1154
Stream size                              : 41.9 KiB (0%)
Title                                    : Full
Language                                 : French
Default                                  : Yes
Forced                                   : No

Text #2
ID                                       : 5
Format                                   : UTF-8
Codec ID                                 : S_TEXT/UTF8
Codec ID/Info                            : UTF-8 Plain Text
Duration                                 : 1 h 18 min
Bit rate                                 : 47 b/s
Count of elements                        : 967
Stream size                              : 27.3 KiB (0%)
Title                                    : Full
Language                                 : English
Default                                  : No
Forced                                   : No

Menu
00:00:00.000                             : :Chapter 1
00:10:09.692                             : :Chapter 2
00:22:56.166                             : :Chapter 3
00:33:17.245                             : :Chapter 4
00:39:52.848                             : :Chapter 5
00:41:52.134                             : :Chapter 6
00:42:47.564                             : :Chapter 7
00:57:24.691                             : :Chapter 8
01:03:31.098                             : :Chapter 9
01:10:40.945                             : :Chapter 10
01:15:47.709                             : :Chapter 11
01:22:19.225                             : :Chapter 12
Світлини



4. Таксі 4 / Taxi 4 (2007) 1080p H.265 4xUkr/Fre | Sub Ukr/Fre/Eng
Таксі 4 / Taxi 4 (2007) 1080p H.265 4xUkr/Fre | Sub Ukr/Fre/Eng

Таксі. Колекція / Taxi. Collection (1998-2018) 1080p H.265 Ukr/Fre | Sub Eng/Fre


Жанр: бойовик, комедія, кримінальний
Країна: Франція
Кінокомпанія: EuropaCorp, ARP Sélection, TF1 Films Production
Режисер: Жерар Кравчик / Gerard Krawczyk
Актори: Самі Насері /Samy Naceri/, Фредерік Дюфенталь /Frйdйric Diefenthal/, Бернар Фарсі /Bernard Farcy/, Емма Сьоберг /Emma Sjцberg/, Едуард Монтут /Edouard Montoute/, Жан-Крістоф Буве /Jean-Christophe Bouvet/, Франсуа Дам'єн /Franзois Damiens/, Фредерік Тірмон /Frйdйrique Tirmont/

Сюжет:
Через п’ять років після подій третього фільму, Даніель і Емільєн знову разом і ми знову маємо можливість спостерігати за їх пригодами, на цей раз на Лазурному березі. Поліцейський комісаріат в тривозі. В Марсель з Бельгії присилають небезпечного злочинця, який на наступний день повинен бути відправлений в гарячу Африку на справедливий суд. Незважаючи на це, що бандита транспортують і тримають під охороною в вбранні аквалангіста, підозріло нагадуючого гамівну сорочку Доктора Лектора з фільму «Мовчанн ягнят», йому вдається обманути копів, вийти з відділку і навіть організувати пограбування банку в Монте-Карло. Правда, в якості спецагенту в банді Бельгійця бере безпосередню участь спеціаліст контррозвідки, по сумісництву – дружина Емільєна, так що спецслужби тримають все під контролем. Але, тим не менше, тотальне розгільдяйство і тупість жандармів дає можливість гангстерам спробу вирватись і повеселити глядачів картинками з блатного життя марсельско-бельгійського дна. Затримати веселих вбивць буде не так-то просто. Правда, правосуддя все-таки переможе.

Тривалість: 01:30:53
Якість:

Відео:
кодек: H.265 (HEVC)
розмір кадру: 1920 x 816
бітрейт: 10 739 кб/с
бітова глибина: 10 біт

Увага! Перед завантаженням переконайтесь, що ваш пристрій відтворення (та/або ПЗ) підтримує H.265 (HEVC)

Аудіо # 1:
мова: українська
переклад: багатоголосий закадровий
кодек: AC-3 2.0
бітрейт: 192 кб/с

Аудіо # 2:
мова: українська
переклад: двоголосий закадровий
кодек: AC-3 2.0
бітрейт: 192 кб/с

Аудіо # 3:
мова: українська
переклад: багатоголосий закадровий
кодек: AC-3 2.0
бітрейт: 192 кб/с

Аудіо # 4:
мова: українська
переклад: багатоголосий закадровий
кодек: AC-3 2.0
бітрейт: 192 кб/с

Аудіо # 5:
мова: французька
переклад: оригінал
кодек: AC-3 5.1
бітрейт: 640 кб/с

Субтитри # 1: (Full)
мова: українська
тип: програмні (м'які)
формат: *.srt

Субтитри # 2: (Full)
мова: французька
тип: програмні (м'які)
формат: *.srt

Субтитри # 3: (Full)
мова: англійська
тип: програмні (м'які)
формат: *.srt


Info
Код:
General
Unique ID                                : 80658068648133539841568900588175676647 (0x3CAE2DD0C11B422078A0306BA61CD4E7)
Complete name                            : 4. Taxi 4 (2007) 1080p H.265 [4xUKR_FRE] [Hurtom].
Format                                   :
Format version                           : Version 4
File size                                : 7.71 GiB
Duration                                 : 1 h 30 min
Overall bit rate                         : 12.2 Mb/s
Movie name                               : Таксі 4 / Taxi 4 (2007)
Encoded date                             : UTC 2019-11-29 22:01:31
Writing application                      : v20.0.0 ('I Am The Sun') 64-bit
Writing library                          : libebml v1.3.5 + v1.4.8
Cover                                    : Yes
Attachments                              : Cover.jpg

Video
ID                                       : 1
Format                                   : HEVC
Format/Info                              : High Efficiency Video Coding
Format profile                           : Main [email protected]@High
Codec ID                                 : V_MPEGH/ISO/HEVC
Duration                                 : 1 h 30 min
Bit rate                                 : 10.7 Mb/s
Width                                    : 1 920 pixels
Height                                   : 816 pixels
Display aspect ratio                     : 2.35:1
Frame rate mode                          : Constant
Frame rate                               : 23.976 (24000/1001) FPS
Color space                              : YUV
Chroma subsampling                       : 4:2:0
Bit depth                                : 10 bits
Bits/(Pixel*Frame)                       : 0.286
Stream size                              : 6.82 GiB (88%)
Title                                    : Таксі 4 / Taxi 4 (2007)
Writing library                          : x265 3.1+7-147fb92c5ed5:[Windows][clang 8.0.0][64 bit] 10bit
Encoding settings                        : cpuid=1111039 / frame-threads=13 / wpp / no-pmode / no-pme / no-psnr / no-ssim / log-level=3 / input-csp=1 / input-res=1920x816 / interlace=0 / total-frames=0 / level-idc=41 / high-tier=1 / uhd-bd=0 / ref=5 / allow-non-conformance / no-repeat-headers / annexb / no-aud / no-hrd / info / hash=0 / no-temporal-layers / open-gop / min-keyint=23 / keyint=240 / gop-lookahead=0 / bframes=8 / b-adapt=2 / b-pyramid / bframe-bias=0 / rc-lookahead=60 / lookahead-slices=4 / scenecut=60 / radl=0 / no-splice / no-intra-refresh / ctu=64 / min-cu-size=8 / rect / amp / max-tu-size=32 / tu-inter-depth=4 / tu-intra-depth=4 / limit-tu=4 / rdoq-level=2 / dynamic-rd=0.00 / no-ssim-rd / signhide / no-tskip / nr-intra=0 / nr-inter=0 / no-constrained-intra / no-strong-intra-smoothing / max-merge=5 / limit-refs=1 / limit-modes / me=3 / subme=7 / merange=57 / temporal-mvp / no-hme / weightp / weightb / no-analyze-src-pics / deblock=-3:-3 / no-sao / no-sao-non-deblock / rd=6 / no-early-skip / no-rskip / no-fast-intra / no-tskip-fast / no-cu-lossless / b-intra / no-splitrd-skip / rdpenalty=0 / psy-rd=2.00 / psy-rdoq=1.00 / no-rd-refine / no-lossless / cbqpoffs=0 / crqpoffs=0 / rc=crf / crf=19.0 / qcomp=0.60 / qpstep=4 / stats-write=0 / stats-read=0 / vbv-maxrate=50000 / vbv-bufsize=50000 / vbv-init=0.9 / crf-max=30.0 / crf-min=0.0 / ipratio=1.40 / pbratio=1.30 / aq-mode=2 / aq-strength=1.00 / no-cutree / zone-count=0 / no-strict-cbr / qg-size=32 / no-rc-grain / qpmax=69 / qpmin=0 / no-const-vbv / sar=1 / overscan=0 / videoformat=5 / range=0 / colorprim=1 / transfer=1 / colormatrix=1 / chromaloc=0 / display-window=0cll=0,0 / min-luma=0 / max-luma=1023 / log2-max-poc-lsb=8 / vui-timing-info / vui-hrd-info / slices=1 / no-opt-qp-pps / no-opt-ref-list-length-pps / no-multi-pass-opt-rps / scenecut-bias=0.05 / no-opt-cu-delta-qp / no-aq-motion / no-hdr / no-hdr-opt / no-dhdr10-opt / no-idr-recovery-sei / analysis-reuse-level=5 / scale-factor=0 / refine-intra=0 / refine-inter=0 / refine-mv=0 / refine-ctu-distortion=0 / no-limit-sao / ctu-info=0 / no-lowpass-dct / refine-analysis-type=259 / copy-pic=1 / max-ausize-factor=1.0 / no-dynamic-refine / no-single-sei / no-hevc-aq / no-svt / no-field / qp-adaptation-range=1.00
Default                                  : Yes
Forced                                   : No
Color range                              : Limited
Color primaries                          : BT.709
Transfer characteristics                 : BT.709
Matrix coefficients                      : BT.709

Audio #1
ID                                       : 2
Format                                   : AC-3
Format/Info                              : Audio Coding 3
Commercial name                          : Dolby Digital
Codec ID                                 : A_AC3
Duration                                 : 1 h 30 min
Bit rate mode                            : Constant
Bit rate                                 : 192 kb/s
Channel(s)                               : 2 channels
Channel layout                           : L R
Sampling rate                            : 48.0 kHz
Frame rate                               : 31.250 FPS (1536 SPF)
Bit depth                                : 16 bits
Compression mode                         : Lossy
Stream size                              : 125 MiB (2%)
Title                                    : / 2.0 Ch / 192 kbps / БЗ / Novy Kanal
Language                                 : Ukrainian
Service kind                             : Complete Main
Default                                  : Yes
Forced                                   : Yes

Audio #2
ID                                       : 3
Format                                   : AC-3
Format/Info                              : Audio Coding 3
Commercial name                          : Dolby Digital
Codec ID                                 : A_AC3
Duration                                 : 1 h 30 min
Bit rate mode                            : Constant
Bit rate                                 : 192 kb/s
Channel(s)                               : 2 channels
Channel layout                           : L R
Sampling rate                            : 48.0 kHz
Frame rate                               : 31.250 FPS (1536 SPF)
Bit depth                                : 16 bits
Compression mode                         : Lossy
Stream size                              : 125 MiB (2%)
Title                                    : / 2.0 Ch / 192 kbps / ДЗ / 1+1
Language                                 : Ukrainian
Service kind                             : Complete Main
Default                                  : No
Forced                                   : No

Audio #3
ID                                       : 4
Format                                   : AC-3
Format/Info                              : Audio Coding 3
Commercial name                          : Dolby Digital
Codec ID                                 : A_AC3
Duration                                 : 1 h 30 min
Bit rate mode                            : Constant
Bit rate                                 : 192 kb/s
Channel(s)                               : 2 channels
Channel layout                           : L R
Sampling rate                            : 48.0 kHz
Frame rate                               : 31.250 FPS (1536 SPF)
Bit depth                                : 16 bits
Compression mode                         : Lossy
Stream size                              : 125 MiB (2%)
Title                                    : / 2.0 Ch / 192 kbps / БЗ / Kanal Ukraina
Language                                 : Ukrainian
Service kind                             : Complete Main
Default                                  : No
Forced                                   : No

Audio #4
ID                                       : 5
Format                                   : AC-3
Format/Info                              : Audio Coding 3
Commercial name                          : Dolby Digital
Codec ID                                 : A_AC3
Duration                                 : 1 h 30 min
Bit rate mode                            : Constant
Bit rate                                 : 192 kb/s
Channel(s)                               : 2 channels
Channel layout                           : L R
Sampling rate                            : 48.0 kHz
Frame rate                               : 31.250 FPS (1536 SPF)
Bit depth                                : 16 bits
Compression mode                         : Lossy
Stream size                              : 125 MiB (2%)
Title                                    : / 2.0 Ch / 192 kbps / БЗ / ICTV
Language                                 : Ukrainian
Service kind                             : Complete Main
Default                                  : No
Forced                                   : No

Audio #5
ID                                       : 6
Format                                   : AC-3
Format/Info                              : Audio Coding 3
Commercial name                          : Dolby Digital
Codec ID                                 : A_AC3
Duration                                 : 1 h 30 min
Bit rate mode                            : Constant
Bit rate                                 : 640 kb/s
Channel(s)                               : 6 channels
Channel layout                           : L R C LFE Ls Rs
Sampling rate                            : 48.0 kHz
Frame rate                               : 31.250 FPS (1536 SPF)
Bit depth                                : 16 bits
Compression mode                         : Lossy
Stream size                              : 416 MiB (5%)
Title                                    : / 5.1 Ch / 640 kbps / Original
Language                                 : French
Service kind                             : Complete Main
Default                                  : No
Forced                                   : No

Text #1
ID                                       : 7
Format                                   : UTF-8
Codec ID                                 : S_TEXT/UTF8
Codec ID/Info                            : UTF-8 Plain Text
Duration                                 : 1 h 25 min
Bit rate                                 : 122 b/s
Count of elements                        : 1087
Stream size                              : 76.4 KiB (0%)
Title                                    : Full
Language                                 : Ukrainian
Default                                  : Yes
Forced                                   : No

Text #2
ID                                       : 8
Format                                   : UTF-8
Codec ID                                 : S_TEXT/UTF8
Codec ID/Info                            : UTF-8 Plain Text
Duration                                 : 1 h 24 min
Bit rate                                 : 117 b/s
Count of elements                        : 1715
Stream size                              : 72.6 KiB (0%)
Title                                    : Full
Language                                 : French
Default                                  : No
Forced                                   : No

Text #3
ID                                       : 9
Format                                   : UTF-8
Codec ID                                 : S_TEXT/UTF8
Codec ID/Info                            : UTF-8 Plain Text
Duration                                 : 1 h 24 min
Bit rate                                 : 85 b/s
Count of elements                        : 1751
Stream size                              : 52.7 KiB (0%)
Title                                    : Full
Language                                 : English
Default                                  : No
Forced                                   : No

Menu
00:00:00.000                             : en:Chapter 1
00:10:19.994                             : en:Chapter 2
00:21:06.974                             : en:Chapter 3
00:31:32.015                             : en:Chapter 4
00:40:24.005                             : en:Chapter 5
00:47:29.930                             : en:Chapter 6
00:51:54.987                             : en:Chapter 7
00:57:43.960                             : en:Chapter 8
01:04:11.931                             : en:Chapter 9
01:08:59.886                             : en:Chapter 10
01:17:40.948                             : en:Chapter 11
01:22:37.953                             : en:Chapter 12
Світлини



5. Таксі 5 / Taxi 5 (2018) 1080p H.265 Ukr/Fre | Sub Fre/Eng
Таксі 5 / Taxi 5 (2018) 1080p H.265 Ukr/Fre | Sub Fre/Eng

Таксі. Колекція / Taxi. Collection (1998-2018) 1080p H.265 Ukr/Fre | Sub Eng/Fre


Жанр: бойовик, комедія, кримінальний
Країна: Франція
Кінокомпанія: EuropaCorp, T5 Production, ARP Sélection
Режисер: Франк Ґастамбід
Актори: Сабріна Уазані, Бернар Фарсі, Франк Ґастамбід, Малік Бенталья, Сальваторе Еспозіто, Едуар Монтут, Санд Ван Рой, Рамзі Бедіа, Івонн Граделе, Мусса Мааскрі та інші

Сюжет:
Геніальний молодий водій з Парижу Сільвен Маро працює у муніципальній поліції Марселю. Пан Жібер, колишній комісар поліції, а нині мер міста, доручає «супер-поліцейському» Маро затримку небезпечної банди італійців. Злочинці грабують ювелірні крамниці, тікаючи від переслідування на потужних Ferrari. Аби виконати свою місію, Сільвен змушений буде співпрацювати з найгіршим водієм міста Едді Маклуфом, племінником уславленого таксиста Даніеля.

Тривалість: 01:41:54
Якість:

Відео:
кодек: H.265 (HEVC)
розмір кадру: 1920 x 804
бітрейт: 8 856 кб/с
бітова глибина: 10 біт

Увага! Перед завантаженням переконайтесь, що ваш пристрій відтворення (та/або ПЗ) підтримує H.265 (HEVC)

Аудіо # 1:
мова: українська
переклад: професійний дубльований | студія Pie Post Production
кодек: 2.0
бітрейт: 192 кб/с
Інформація про дубляж
Переклад: Надія Вальнюк
Режисер дубляжу: Лідія Громовенко,
Звукорежисери: Роман Матвєєв, Віталій Ящук
Звукорежисер перезапису: Віталій Ящук
Ролі дублювали: Дмитро Гаврилов, Андрій Федінчик, Михайло Кришталь, Михайло Войчук, Дмитро Завадський, Аліна Проценко, Юлія Перенчук, Андрій Альохін, Юрій Гребельник, Дмитро Вікулов, Володимир Плахов, Юрій Кудрявець та інші.

Фільм дубльовано компанією Pie Post Production на замовлення компанії UFD.
Аудіо # 2:
мова: французька
переклад: оригінал
кодек: 5.1
бітрейт: 1510 кб/с

Субтитри # 1-3: (Forced, Full)
мова: французька
тип: програмні (м'які), пререндерні
формат: *.srt, *.pgs

Субтитри # 4: (Full)
мова: англійська
тип: програмні (м'які)
формат: *.srt


Info
Код:
General
Unique ID                                : 224060045235964411001795562869045032759 (0xA8906521BD4021BA70E0D8D76C2F7737)
Complete name                            : 5. Taxi 5 (2018) 1080p H.265 [UKR_FRE] [Hurtom].
Format                                   :
Format version                           : Version 4
File size                                : 7.53 GiB
Duration                                 : 1 h 41 min
Overall bit rate                         : 10.6 Mb/s
Movie name                               : Таксі 5 / Taxi 5 (2018)
Encoded date                             : UTC 2019-12-02 21:26:15
Writing application                      : v20.0.0 ('I Am The Sun') 64-bit
Writing library                          : libebml v1.3.5 + v1.4.8
Cover                                    : Yes
Attachments                              : cover

Video
ID                                       : 1
Format                                   : HEVC
Format/Info                              : High Efficiency Video Coding
Format profile                           : Main [email protected]@High
Codec ID                                 : V_MPEGH/ISO/HEVC
Duration                                 : 1 h 41 min
Bit rate                                 : 8 855 kb/s
Width                                    : 1 920 pixels
Height                                   : 804 pixels
Display aspect ratio                     : 2.40:1
Frame rate mode                          : Constant
Frame rate                               : 24.000 FPS
Color space                              : YUV
Chroma subsampling                       : 4:2:0
Bit depth                                : 10 bits
Bits/(Pixel*Frame)                       : 0.239
Stream size                              : 6.30 GiB (84%)
Title                                    : Таксі 5 / Taxi 5 (2018)
Writing library                          : x265 3.1+7-147fb92c5ed5:[Windows][clang 8.0.0][64 bit] 10bit
Encoding settings                        : cpuid=1111039 / frame-threads=13 / wpp / no-pmode / no-pme / no-psnr / no-ssim / log-level=3 / input-csp=1 / input-res=1920x804 / interlace=0 / total-frames=0 / level-idc=41 / high-tier=1 / uhd-bd=0 / ref=5 / allow-non-conformance / no-repeat-headers / annexb / no-aud / no-hrd / info / hash=0 / no-temporal-layers / open-gop / min-keyint=23 / keyint=240 / gop-lookahead=0 / bframes=8 / b-adapt=2 / b-pyramid / bframe-bias=0 / rc-lookahead=60 / lookahead-slices=4 / scenecut=60 / radl=0 / no-splice / no-intra-refresh / ctu=64 / min-cu-size=8 / rect / amp / max-tu-size=32 / tu-inter-depth=4 / tu-intra-depth=4 / limit-tu=4 / rdoq-level=2 / dynamic-rd=0.00 / no-ssim-rd / signhide / no-tskip / nr-intra=0 / nr-inter=0 / no-constrained-intra / no-strong-intra-smoothing / max-merge=5 / limit-refs=1 / limit-modes / me=3 / subme=7 / merange=57 / temporal-mvp / no-hme / weightp / weightb / no-analyze-src-pics / deblock=-3:-3 / no-sao / no-sao-non-deblock / rd=6 / no-early-skip / no-rskip / no-fast-intra / no-tskip-fast / no-cu-lossless / b-intra / no-splitrd-skip / rdpenalty=0 / psy-rd=2.00 / psy-rdoq=1.00 / no-rd-refine / no-lossless / cbqpoffs=0 / crqpoffs=0 / rc=crf / crf=18.5 / qcomp=0.60 / qpstep=4 / stats-write=0 / stats-read=0 / vbv-maxrate=50000 / vbv-bufsize=50000 / vbv-init=0.9 / crf-max=30.0 / crf-min=0.0 / ipratio=1.40 / pbratio=1.30 / aq-mode=2 / aq-strength=1.00 / no-cutree / zone-count=0 / no-strict-cbr / qg-size=32 / no-rc-grain / qpmax=69 / qpmin=0 / no-const-vbv / sar=1 / overscan=0 / videoformat=5 / range=0 / colorprim=1 / transfer=1 / colormatrix=1 / chromaloc=0 / display-window=0cll=0,0 / min-luma=0 / max-luma=1023 / log2-max-poc-lsb=8 / vui-timing-info / vui-hrd-info / slices=1 / no-opt-qp-pps / no-opt-ref-list-length-pps / no-multi-pass-opt-rps / scenecut-bias=0.05 / no-opt-cu-delta-qp / no-aq-motion / no-hdr / no-hdr-opt / no-dhdr10-opt / no-idr-recovery-sei / analysis-reuse-level=5 / scale-factor=0 / refine-intra=0 / refine-inter=0 / refine-mv=0 / refine-ctu-distortion=0 / no-limit-sao / ctu-info=0 / no-lowpass-dct / refine-analysis-type=-406516258 / copy-pic=1 / max-ausize-factor=1.0 / no-dynamic-refine / no-single-sei / no-hevc-aq / no-svt / no-field / qp-adaptation-range=1.00
Language                                 : French
Default                                  : Yes
Forced                                   : No
Color range                              : Limited
Color primaries                          : BT.709
Transfer characteristics                 : BT.709
Matrix coefficients                      : BT.709

Audio #1
ID                                       : 2
Format                                   : AC-3
Format/Info                              : Audio Coding 3
Commercial name                          : Dolby Digital
Codec ID                                 : A_AC3
Duration                                 : 1 h 41 min
Bit rate mode                            : Constant
Bit rate                                 : 192 kb/s
Channel(s)                               : 2 channels
Channel layout                           : L R
Sampling rate                            : 48.0 kHz
Frame rate                               : 31.250 FPS (1536 SPF)
Bit depth                                : 16 bits
Compression mode                         : Lossy
Stream size                              : 140 MiB (2%)
Title                                    : / 2.0 Ch / 192 kbps / ПД / Line / Pie Post Production
Language                                 : Ukrainian
Service kind                             : Complete Main
Default                                  : Yes
Forced                                   : Yes

Audio #2
ID                                       : 3
Format                                   :
Format/Info                              : Digital Theater Systems
Codec ID                                 : A_DTS
Duration                                 : 1 h 41 min
Bit rate mode                            : Constant
Bit rate                                 : 1 509 kb/s
Channel(s)                               : 6 channels
Channel layout                           : C L R Ls Rs LFE
Sampling rate                            : 48.0 kHz
Frame rate                               : 93.750 FPS (512 SPF)
Bit depth                                : 16 bits
Compression mode                         : Lossy
Stream size                              : 1.07 GiB (14%)
Title                                    : / 5.1 Ch / 1509 kbps / Original
Language                                 : French
Default                                  : No
Forced                                   : No

Text #1
ID                                       : 4
Format                                   : UTF-8
Codec ID                                 : S_TEXT/UTF8
Codec ID/Info                            : UTF-8 Plain Text
Duration                                 : 47 min 59 s
Bit rate                                 : 2 b/s
Count of elements                        : 35
Stream size                              : 840 Bytes (0%)
Title                                    : Forced
Language                                 : French
Default                                  : Yes
Forced                                   : No

Text #2
ID                                       : 5
Format                                   : UTF-8
Codec ID                                 : S_TEXT/UTF8
Codec ID/Info                            : UTF-8 Plain Text
Duration                                 : 1 h 41 min
Bit rate                                 : 65 b/s
Count of elements                        : 2157
Stream size                              : 48.6 KiB (0%)
Title                                    : Full
Language                                 : French
Default                                  : No
Forced                                   : No

Text #3
ID                                       : 6
Format                                   : PGS
Muxing mode                              : zlib
Codec ID                                 : S_HDMV/PGS
Codec ID/Info                            : Picture based subtitle format used on BDs/HD-DVDs
Duration                                 : 1 h 41 min
Bit rate                                 : 36.1 kb/s
Count of elements                        : 4313
Stream size                              : 26.3 MiB (0%)
Title                                    : Full
Language                                 : French
Default                                  : No
Forced                                   : No

Text #4
ID                                       : 7
Format                                   : UTF-8
Codec ID                                 : S_TEXT/UTF8
Codec ID/Info                            : UTF-8 Plain Text
Duration                                 : 1 h 35 min
Bit rate                                 : 56 b/s
Count of elements                        : 1811
Stream size                              : 39.8 KiB (0%)
Title                                    : Full
Language                                 : English
Default                                  : No
Forced                                   : No

Menu
00:00:00.000                             : en:00:00:00.000
00:09:24.167                             : en:00:09:24.167
00:17:19.417                             : en:00:17:19.417
00:27:35.000                             : en:00:27:35.000
00:34:09.750                             : en:00:34:09.750
00:41:46.833                             : en:00:41:46.833
00:50:04.125                             : en:00:50:04.125
00:58:29.625                             : en:00:58:29.625
01:06:05.708                             : en:01:06:05.708
01:14:53.167                             : en:01:14:53.167
01:23:59.333                             : en:01:23:59.333
01:32:28.750                             : en:01:32:28.750
Світлини




Джерело: &
Особиста оцінка: 10 - без зайвих вагань рекомендую всім!


Срібний реліз (на рейтинг впливає 50% завантаженого)
 Трекер:    Зареєстрований   

Завантажити / скачати фільм українською



відео для новачків



 Зареєстрований:   2019-12-03 22:32
 Розмір:   41.91 GB 
 Оцінка фільму:   9.8/10 (Голосів: 13)
   
MakRA 
VIP


З нами з: 10.11.18
Востаннє: 09.12.19
Повідомлень: 591

2019-12-03 22:36  
Цитата:
Таксі / Taxi (1998)

Як швидко час плине ... 20 років пролетіло, а ніби недавно була перша частина про "скажене таксі" Happy

mr. blef 
Частий відвідувач


З нами з: 26.02.18
Востаннє: 06.12.19
Повідомлень: 45

2019-12-04 09:43  
Спасибі за реліз! Срібла варто очікувати?
Anonymous 







2019-12-04 23:06  
MakRA написано:
Як швидко час плине ... 20 років пролетіло, а ніби недавно була перша частина про "скажене таксі"

Блін, і справді, 20 років пролетіло...

Додано через 21 секунду:

mr. blef написано:
Спасибі за реліз!

Будь ласка!

Додано через 29 секунд:

kino., дякую за срібло!

mr. blef 
Частий відвідувач


З нами з: 26.02.18
Востаннє: 06.12.19
Повідомлень: 45

2019-12-05 16:54  
Велика подяка за срібло! Забираю в колекцію!
Ваш часовий пояс: GMT + 2 Години

Нова тема   Відповісти