До зірок / Ad Astra (2019) 1080p Ukr/Eng | Sub Ukr/Eng

Нові коментарі

Нова тема   Відповісти
Автор Повідомлення
Anonymous 







2019-12-03 21:49  
До зірок / Ad Astra (2019) 1080p Ukr/Eng | Sub Ukr/Eng

До зірок / Ad Astra (2019) 1080p Ukr/Eng | Sub Ukr/Eng
Альтернативні постери:



До зірок / Ad Astra (2019) 1080p Ukr/Eng | Sub Ukr/Eng





Жанр: наукова фантастика, трилер, драма, детектив, пригодницький
Країна: США, Китай, Бразилія



Кінокомпанія: 20th Century Fox, New Regency Pictures, Plan B Entertainment
Режисер: Джеймс Ґрей
Актори: Бред Пітт, Томмі Лі Джонс, Рут Негг, Дональд Сазерленд, Кімберлі Еліз, Лорен Дін, Донні Кешаварц, Шон Блейкмор, Боббі Ніш, Ліза Гей Хемілтон

Сюжет:
Батько інженера армійського корпусу Сполучених Штатів Америки Роя МакБрайда двадцять років тому вирушив на посаді капітана корабля з секретною місією на пошуки позаземної цивілізації. Через шістнадцять років після початку експедиції корабель зник. Крім того, стало відомо, що чоловік експериментував із матеріалом, який може поставити під загрозу існування всього живого у Всесвіті. Настав час самого Роя відправитися на пошуки батька, а також, щоб розібратися з цими експериментами. Ця подорож відкриє багато секретів, які по-новому покажуть людське існування та наше місце в космосі. Якщо його батько шукав нові цивілізації, то сам Рой повинен врятувати нашу.
Офіційні українські трейлер та відео:

трейлер


фрагмент фільму


відео

Рейтинг MPAA: PG-13 - дітям до 13 років перегляд не бажаний
Вікова категорія: 12+

Тривалість: 02:03:03
Якість: 1080p [Amazon]

Відео:
кодек:
розмір кадру: 1920x800
бітрейт: 8415 кб/с

Аудіо # 1:
мова: українська
переклад: професійний дубльований | Line
кодек: 2.0
бітрейт: 192 кб/с

Аудіо # 2:
мова: англійська
переклад: оригінал
кодек: E- 5.1
бітрейт: 640 кб/с

Субтитри # 1:
мова: українська
тип: програмні (м'які)
формат: *.srt
переклад: Руслан Поліщук, Надія Бойван

Субтитри # 2-3:
мова: англійська (повні, SDH)
тип: програмні (м'які)
формат: *.srt
Info
Код:

Complete name               : Ad Astra (2019) [Ukr,Eng sub.Ukr,Eng] AMZN 1080p [Hurtom].
Format                      :
Format version              : Version 4
File size                   : 7.95 GiB
Duration                    : 2 h 3 min
Overall bit rate            : 9 247 kb/s
Movie name                  : До зірок / Ad Astra (2019) [Ukr,Eng sub.Ukr,Eng] AMZN 1080p [Hurtom]
Encoded date                : UTC 2019-12-04 08:11:02
Writing application         : v40.0.0 ('Old Town Road + Pony') 64-bit
Writing library             : libebml v1.3.9 + v1.5.2
Cover                       : Yes
Attachments                 : cover.jpg

Video
ID                          : 1
Format                      : AVC
Format/Info                 : Advanced Video Codec
Format profile              : [email protected]
Format settings             : CABAC / 4 Ref Frames
Format settings, CABAC      : Yes
Format settings, Reference  : 4 frames
Codec ID                    : V_MPEG4/ISO/AVC
Duration                    : 2 h 3 min
Bit rate mode               : Constant
Bit rate                    : 8 415 kb/s
Nominal bit rate            : 10 000 kb/s
Width                       : 1 920 pixels
Height                      : 800 pixels
Display aspect ratio        : 2.40:1
Frame rate mode             : Constant
Frame rate                  : 23.976 (24000/1001) FPS
Color space                 : YUV
Chroma subsampling          : 4:2:0
Bit depth                   : 8 bits
Scan type                   : Progressive
Bits/(Pixel*Frame)          : 0.228
Stream size                 : 7.23 GiB (91%)
Title                       : До зірок / Ad Astra (2019) 1080p.AMZN..DDP5.1.-NTG
Language                    : English
Default                     : Yes
Forced                      : No
Color range                 : Limited
Color primaries             : BT.709
Transfer characteristics    : BT.709
Matrix coefficients         : BT.709

Audio #1
ID                          : 2
Format                      : AC-3
Format/Info                 : Audio Coding 3
Commercial name             : Dolby Digital
Codec ID                    : A_AC3
Duration                    : 2 h 3 min
Bit rate mode               : Constant
Bit rate                    : 192 kb/s
Channel(s)                  : 2 channels
Channel layout              : L R
Sampling rate               : 48.0 kHz
Frame rate                  : 31.250 FPS (1536 SPF)
Compression mode            : Lossy
Stream size                 : 169 MiB (2%)
Title                       : Dub [Line], 2.0 192 Kbps
Language                    : Ukrainian
Service kind                : Complete Main
Default                     : Yes
Forced                      : No

Audio #2
ID                          : 3
Format                      : E-AC-3
Format/Info                 : Enhanced AC-3
Commercial name             : Dolby Digital Plus
Codec ID                    : A_EAC3
Duration                    : 2 h 3 min
Bit rate mode               : Constant
Bit rate                    : 640 kb/s
Channel(s)                  : 6 channels
Channel layout              : L R C LFE Ls Rs
Sampling rate               : 48.0 kHz
Frame rate                  : 31.250 FPS (1536 SPF)
Compression mode            : Lossy
Stream size                 : 563 MiB (7%)
Title                       : Original, E- 5.1 640 Kbps
Language                    : English
Service kind                : Complete Main
Default                     : No
Forced                      : No

Text #1
ID                          : 4
Format                      : UTF-8
Codec ID                    : S_TEXT/UTF8
Codec ID/Info               : UTF-8 Plain Text
Duration                    : 2 h 2 min
Bit rate                    : 68 b/s
Count of elements           : 1084
Stream size                 : 61.5 KiB (0%)
Title                       : Ukr Full [iTunes]
Language                    : Ukrainian
Default                     : No
Forced                      : No

Text #2
ID                          : 5
Format                      : UTF-8
Codec ID                    : S_TEXT/UTF8
Codec ID/Info               : UTF-8 Plain Text
Duration                    : 2 h 0 min
Bit rate                    : 43 b/s
Count of elements           : 1261
Stream size                 : 38.7 KiB (0%)
Title                       : Eng Full
Language                    : English
Default                     : No
Forced                      : No

Text #3
ID                          : 6
Format                      : UTF-8
Codec ID                    : S_TEXT/UTF8
Codec ID/Info               : UTF-8 Plain Text
Duration                    : 2 h 0 min
Bit rate                    : 46 b/s
Count of elements           : 1396
Stream size                 : 41.3 KiB (0%)
Title                       : Eng SDH
Language                    : English
Default                     : No
Forced                      : No



Джерело: &
Подяка п.sub_Trader за надані субтитри.

Особиста оцінка: 8 - мені сподобалося. Якщо вам подобаються фільми на філософську тематику, зокрема "Той, хто біжить по лезу 2049" - тоді рекомендую до перегляду, якщо ж ви очікуєте екшену в стилі "Гравітації" - то краще обмежтесь переглядом трейлерів та відео під спойлером в описі.

04.12.2019 реліз оновлено - додано український дубляж


Золотий реліз (завантажене не впливає на рейтинг)
 Трекер:    Зареєстрований   

Завантажити / скачати фільм українською



відео для новачків



 Зареєстрований:   2019-12-04 10:21
 Розмір:   7.95 GB 
 Оцінка фільму:   9.3/10 (Голосів: 62)
   
Інші релізи
   До зірок / Ad Astra (2019) 720p Ukr/Eng | Sub Ukr/Eng 11FrYkT  50 / 3   4.44 GB   2019-12-10 19:13 
   До зірок / Ad Astra (2019) UHD 1080p H.265 Ukr/Eng | Sub Ukr/Eng -Star-Lord-  15 / 2   13.13 GB   2019-12-10 12:37 
   До зірок / Ad Astra (2019) 1080p Ukr/Eng | Sub Ukr/Eng antik_2008  119 / 8   10.73 GB   2019-12-08 01:59 
   До зірок / Ad Astra (2019) AVC Ukr/Eng | Sub Ukr/Eng 11FrYkT  162 / 13   1.88 GB   2019-12-07 20:04 
   До зірок / Ad Astra (2019) UHD Remux 4K 2160p HDR H.265 Ukr/Eng | Sub Ukr/Eng antik_2008  64 / 3   44.87 GB   2019-12-06 21:21 
   До зірок / Ad Astra (2019) Ukr/Eng antik_2008  235 / 6   1.97 GB   2019-12-06 02:49 
Starman1 
Новенький


З нами з: 29.12.16
Востаннє: 10.12.19
Повідомлень: 5

2019-12-03 22:06  
Чекаю! Ходив у кінотеатр на нього,просто СУПЕР фантастика.
diesel55 
Новенький


З нами з: 06.05.14
Востаннє: 11.12.19
Повідомлень: 5

2019-12-03 22:14  
А укр. доріжку коли можна буде очікувати? Не раніше виходу на ДВД (тобто 31 січня 2020 року)?
troubless 
Частий відвідувач


З нами з: 14.06.11
Востаннє: 11.12.19
Повідомлень: 48

2019-12-03 22:24  
Цитата:
А укр. доріжку коли можна буде очікувати? Не раніше виходу на ДВД (тобто 31 січня 2020 року)?

06 грудня, Українська (Dolby 7.1 Plus, Dolby 5.1, Dolby Atmos)
Якось так.

Anonymous 







2019-12-03 22:49  
Реліз готовий до завантаження.
Anonymous 







2019-12-04 10:22  
04.12.2019 реліз оновлено - додано український дубляж
neokleo 
Новенький


З нами з: 05.12.17
Востаннє: 11.12.19
Повідомлень: 17

2019-12-04 16:18  
Фільм більш філософський, ніж фантастичний. І такий... дуже неспішний. Якщо розраховуєте на екшн, то будете розчаровані. Потрібно відповідний настрій для перегляду, тоді торкне.
poolvetrum 
VIP


З нами з: 01.06.14
Востаннє: 11.12.19
Повідомлень: 282

2019-12-05 14:16  
Достойний представник наукової фантастики. Не трендовий. Тут мінімум екшену, більше особистої драми, роздумів, відчуттів. Графа відмінна. Часом відмотував назад аби зацінити картинку в усіх деталях.
Всім справжнім прихильникам жанру обов'язково дивитись.

P.S. Здалося, що автори фільму надихалися "Космічною Одіссеєю" Кларка. Помітив чимало спільних сюжетних моментів. Хтось іще помітив?

waldi-hurtom 
VIP


З нами з: 07.10.12
Востаннє: 11.12.19
Повідомлень: 1055

2019-12-05 19:14  
Великих технічних ляпів, звичних для фантастичних картин, немає, крім, хіба, польоту з дверима скрізь метеорний рій. Але в цілому фільм нагадує геронтологічну лікарню, психіатричне відділення, палату пацієнтів з підозрою на едіпів комплекс. Для завершення картини Піт мав вдути свою матусю - можливо, в театральній версій ще побачимо. В Голівуді треба робити чистку від старців, бо вони невгамовні - пролізе одне як продюсер чи режисер і понатягує за собою купу дефективних. Перестаркуваті божевільні астронавти, 80-річні охоронці - бляха, огидно дивитися! Піту 55 років грає 40-літнього інфантила. Хоч би поголився, бо сива борода пасує Гендальфу. Першу половину ще можна дивитися, а другу краще вимкнути, щоб не псувати остаточно враження. 7 з 10.
P.S. Раджу подивитися Space Cowboys Клінта Іствуда, на Толоці лежить вже 7 років. Після цього лайна то справжній шедевр. Теж геронтологія, але весела. А які там кацапи - справжня Імперія Зла!

don pedro 
Попереджень: 2
Попереджень: 2 


З нами з: 29.06.11
Востаннє: 09.12.19
Повідомлень: 14993

2019-12-05 19:22  
waldi-hurtom написано:
Піт мав вдути свою матусю

А ви гурман.

st_Niko 
Новенький


З нами з: 07.05.14
Востаннє: 08.12.19
Повідомлень: 2

2019-12-05 20:20  
Не рекомендую, ніякого задоволення від фільму, лише чудова картинка в технічному плані
neokleo 
Новенький


З нами з: 05.12.17
Востаннє: 11.12.19
Повідомлень: 17

2019-12-06 18:56  
poolvetrum
poolvetrum написано:
P.S. Здалося, що автори фільму надихалися "Космічною Одіссеєю" Кларка.

Так, саме про цей фільм постійно згадувала під час перегляду. А ще Соляріс.

подвох 
Новенький


З нами з: 29.03.18
Востаннє: 10.12.19
Повідомлень: 24

2019-12-06 19:21  
дуже вдалий, протащівся
DeWitt_1912 
Свій


З нами з: 13.09.16
Востаннє: 08.12.19
Повідомлень: 97

2019-12-07 15:53  
Кіно - класична наукова фантастика, але трохи пріснувата, як на мене. Та й драматична складова для галочки, ліпше було б без неї. Найближче до цього фільму - Інтерстеллар - більш цікавий ідейно, хоча "науковості" у ньому трохи менше.
Загалом, нормальне кіно про космос. Не шедевр, але для фанатів тематики піде.

zorita 
Новенький


З нами з: 24.10.19
Востаннє: 10.12.19
Повідомлень: 2

2019-12-08 22:45  
Сон рябої кобили.
подвох 
Новенький


З нами з: 29.03.18
Востаннє: 10.12.19
Повідомлень: 24

2019-12-10 21:43  
10 Піту перший раз.
Ваш часовий пояс: GMT + 2 Години

Нова тема   Відповісти