Гладіатор [Розширена версія] / Gladiator [Extended Cut] (2000) 1080p H.265 Ukr/Eng | Sub Eng

Нові коментарі

Нова тема   Відповісти
Автор Повідомлення
Anonymous 







2019-12-03 21:47  
Гладіатор [Розширена версія] / Gladiator [Extended Cut] (2000) 1080p H.265 Ukr/Eng | Sub Eng

Гладіатор [Розширена версія] / Gladiator [Extended Cut] (2000) 1080p H.265 Ukr/Eng | Sub Eng


Жанр:бойовик, драма, історичний, пригодницький
Країна: США, Велика Британія
Кінокомпанія: DreamWorks SKG, Scott Free Productions, Universal Pictures
Режисер: Рідлі Скотт
Актори: Рассел Кроу, Хоакін Фенікс, Конні Нільсен, Олівер Рід, Річард Гарріс, Дерек Джекоб, Джимон Хунсу, Девід Скофілд, Джон Шрепнел, Томас Гарана

Сюжет:
У великій Римській імперії не було воєначальника, рівного Максимусу. Непереможні легіони, якими командував цей благородний воїн, обожнювали його і могли піти з ним навіть у пекло.

Але сталося так, що відважний Максимус, готовий битися з будь-яким супротивником в чесному бою, опинився безсилий проти віроломних придворних інтриг. Генерала зрадили і засудили до смерті. Дивом уникнувши загибелі, Максимус стає гладіатором.

Швидко здобувши собі славу в кривавих поєдинках, він опиняється в знаменитому римському Колізеї, де на його арені він зустрінеться, в смертельній сутичці, зі своїм запеклим ворогом ...

Тривалість: 02:50:56
Якість: [10th Anniversary Remastered Edition]

Відео:
кодек: H.265 (HEVC)
розмір кадру: 1920 x 816
бітрейт: 10 851 кб/с
бітова глибина: 10 біт

Увага! Перед завантаженням переконайтесь, що ваш пристрій відтворення (та/або ПЗ) підтримує H.265 (HEVC)

Аудіо # 1:
мова: українська
переклад: багатоголосий закадровий ,
кодек: AC-3 5.1
бітрейт: 448 кб/с

Аудіо # 2:
мова: англійська
переклад: оригінал
кодек: 5.1
бітрейт: 1510 кб/с

Субтитри # 1: (Forced)
мова: українська
тип: програмні (м'які)
формат: *.srt

Субтитри # 2-3: (Full, SDH-Colored)
мова: англійська
тип: програмні (м'які)
формат: *.srt


Info
Код:
General
Unique ID                                : 74997998367837859718822245312037100606 (0x386C16CE1D8F1730032A9A9A388B9C3E)
Complete name                            : Gladiator [Extended Cut] (2000) 1080p H.265 [UKR_ENG] [Hurtom].
Format                                   :
Format version                           : Version 4
File size                                : 15.3 GiB
Duration                                 : 2 h 50 min
Overall bit rate                         : 12.8 Mb/s
Movie name                               : Гладіатор [Розширена версія] / Gladiator [Extended Cut] (2000)
Encoded date                             : UTC 2019-12-03 19:20:10
Writing application                      : v20.0.0 ('I Am The Sun') 64-bit
Writing library                          : libebml v1.3.5 + v1.4.8
Cover                                    : Yes
Attachments                              : Cover.jpg

Video
ID                                       : 1
Format                                   : HEVC
Format/Info                              : High Efficiency Video Coding
Format profile                           : Main [email protected]@High
Codec ID                                 : V_MPEGH/ISO/HEVC
Duration                                 : 2 h 50 min
Bit rate                                 : 10.9 Mb/s
Width                                    : 1 920 pixels
Height                                   : 816 pixels
Display aspect ratio                     : 2.35:1
Frame rate mode                          : Constant
Frame rate                               : 23.976 (23976/1000) FPS
Original frame rate                      : 23.976 (24000/1001) FPS
Color space                              : YUV
Chroma subsampling                       : 4:2:0
Bit depth                                : 10 bits
Bits/(Pixel*Frame)                       : 0.289
Stream size                              : 13.0 GiB (85%)
Title                                    : Гладіатор [Розширена версія] / Gladiator [Extended Cut] (2000)
Writing library                          : x265 3.2.1+1-b5c86a64bbbe:[Windows][MSVC 1923][64 bit] 10bit
Encoding settings                        : cpuid=1111039 / frame-threads=3 / numa-pools=12 / wpp / no-pmode / no-pme / no-psnr / no-ssim / log-level=2 / input-csp=1 / input-res=1920x816 / interlace=0 / total-frames=236052 / level-idc=41 / high-tier=1 / uhd-bd=0 / ref=5 / no-allow-non-conformance / no-repeat-headers / annexb / no-aud / no-hrd / info / hash=0 / no-temporal-layers / open-gop / min-keyint=23 / keyint=240 / gop-lookahead=0 / bframes=14 / b-adapt=2 / b-pyramid / bframe-bias=0 / rc-lookahead=60 / lookahead-slices=4 / scenecut=40 / radl=0 / no-splice / no-intra-refresh / ctu=32 / min-cu-size=8 / rect / amp / max-tu-size=32 / tu-inter-depth=4 / tu-intra-depth=4 / limit-tu=1 / rdoq-level=2 / dynamic-rd=0.00 / no-ssim-rd / signhide / no-tskip / nr-intra=0 / nr-inter=0 / no-constrained-intra / no-strong-intra-smoothing / max-merge=4 / limit-refs=2 / limit-modes / me=3 / subme=7 / merange=57 / temporal-mvp / no-hme / weightp / weightb / no-analyze-src-pics / deblock=-3:-3 / no-sao / no-sao-non-deblock / rd=6 / selective-sao=0 / no-early-skip / no-rskip / no-fast-intra / no-tskip-fast / no-cu-lossless / no-b-intra / no-splitrd-skip / rdpenalty=0 / psy-rd=2.00 / psy-rdoq=1.00 / no-rd-refine / no-lossless / cbqpoffs=0 / crqpoffs=0 / rc=crf / crf=21.0 / qcomp=0.75 / qpstep=4 / stats-write=0 / stats-read=0 / vbv-maxrate=50000 / vbv-bufsize=50000 / vbv-init=0.9 / crf-max=0.0 / crf-min=0.0 / ipratio=1.40 / pbratio=1.30 / aq-mode=1 / aq-strength=1.00 / no-cutree / zone-count=0 / no-strict-cbr / qg-size=32 / no-rc-grain / qpmax=69 / qpmin=0 / no-const-vbv / sar=1 / overscan=0 / videoformat=5 / range=0 / colorprim=1 / transfer=1 / colormatrix=1 / chromaloc=0 / display-window=0 / cll=0,0 / min-luma=0 / max-luma=1023 / log2-max-poc-lsb=8 / vui-timing-info / vui-hrd-info / slices=1 / no-opt-qp-pps / no-opt-ref-list-length-pps / no-multi-pass-opt-rps / scenecut-bias=0.05 / no-opt-cu-delta-qp / no-aq-motion / no-hdr / no-hdr-opt / no-dhdr10-opt / no-idr-recovery-sei / analysis-reuse-level=5 / scale-factor=0 / refine-intra=0 / refine-inter=0 / refine-mv=1 / refine-ctu-distortion=0 / no-limit-sao / ctu-info=0 / no-lowpass-dct / refine-analysis-type=0 / copy-pic=1 / max-ausize-factor=1.0 / no-dynamic-refine / no-single-sei / no-hevc-aq / no-svt / no-field / qp-adaptation-range=1.00
Default                                  : Yes
Forced                                   : No
Color range                              : Limited
Color primaries                          : BT.709
Transfer characteristics                 : BT.709
Matrix coefficients                      : BT.709

Audio #1
ID                                       : 2
Format                                   : AC-3
Format/Info                              : Audio Coding 3
Commercial name                          : Dolby Digital
Codec ID                                 : A_AC3
Duration                                 : 2 h 50 min
Bit rate mode                            : Constant
Bit rate                                 : 448 kb/s
Channel(s)                               : 6 channels
Channel layout                           : L R C LFE Ls Rs
Sampling rate                            : 48.0 kHz
Frame rate                               : 31.250 FPS (1536 SPF)
Bit depth                                : 16 bits
Compression mode                         : Lossy
Stream size                              : 548 MiB (3%)
Title                                    : / 5.1 Ch / 448 kbps / БЗ / ICTV, Kanal Ukraina
Language                                 : Ukrainian
Service kind                             : Complete Main
Default                                  : Yes
Forced                                   : Yes

Audio #2
ID                                       : 3
Format                                   :
Format/Info                              : Digital Theater Systems
Codec ID                                 : A_DTS
Duration                                 : 2 h 50 min
Bit rate mode                            : Constant
Bit rate                                 : 1 509 kb/s
Channel(s)                               : 6 channels
Channel layout                           : C L R Ls Rs LFE
Sampling rate                            : 48.0 kHz
Frame rate                               : 93.750 FPS (512 SPF)
Bit depth                                : 24 bits
Compression mode                         : Lossy
Stream size                              : 1.80 GiB (12%)
Title                                    : / 5.1 Ch / 1509 kbps / Original
Language                                 : English
Default                                  : No
Forced                                   : No

Text #1
ID                                       : 4
Format                                   : UTF-8
Codec ID                                 : S_TEXT/UTF8
Codec ID/Info                            : UTF-8 Plain Text
Duration                                 : 1 h 37 min
Bit rate                                 : 8 b/s
Count of elements                        : 120
Stream size                              : 6.11 KiB (0%)
Title                                    : Forced
Language                                 : Ukrainian
Default                                  : Yes
Forced                                   : Yes

Text #2
ID                                       : 5
Format                                   : UTF-8
Codec ID                                 : S_TEXT/UTF8
Codec ID/Info                            : UTF-8 Plain Text
Duration                                 : 2 h 40 min
Bit rate                                 : 35 b/s
Count of elements                        : 1364
Stream size                              : 41.5 KiB (0%)
Title                                    : Full
Language                                 : English
Default                                  : No
Forced                                   : No

Text #3
ID                                       : 6
Format                                   : UTF-8
Codec ID                                 : S_TEXT/UTF8
Codec ID/Info                            : UTF-8 Plain Text
Duration                                 : 2 h 41 min
Bit rate                                 : 41 b/s
Count of elements                        : 1444
Stream size                              : 49.6 KiB (0%)
Title                                    : SDH-Colored
Language                                 : English
Default                                  : No
Forced                                   : No

Menu
00:00:00.000                             : :Far from Home (Main Title)
00:07:13.308                             : :Hell Unleashed
00:12:50.103                             : :You Have Missed the War
00:18:44.790                             : :A Pleasant Fiction
00:23:29.325                             : :One More Duty
00:32:58.393                             : :You Will Not Be Emperor
00:37:34.878                             : :Hail Caesar
00:40:50.740                             : :A Soldier's Death
00:47:32.725                             : :Mark of the Legion
00:51:35.843                             : :Gladiators, I Salute You
00:55:44.383                             : :Battle in Chains
01:02:21.279                             : :The Greatness of Rome
01:09:56.984                             : :Win the Crowd
01:19:08.285                             : :I Shall Cheer for You
01:29:21.648                             : :The Battle of Carthage
01:37:11.784                             : :My Name Is Gladiator
01:41:35.798                             : :Terribly Vexed
01:51:58.837                             : :A Man for the People
01:56:36.281                             : :Maximus the Merciful
02:00:43.486                             : :You Simply Won't Die
02:04:42.225                             : :The Last Wish of a Dying Man
02:12:19.014                             : :I'm an Entertainer
02:13:32.588                             : :Busy Little Bee
02:24:15.438                             : :Shadows and Dust
02:28:48.670                             : :Am I Not Merciful?
02:34:20.751                             : :Death Smiles at Us All
02:38:43.555                             : :Home Again
02:42:57.726                             : :Now We Are Free (End Credits)
Світлини




Джерело: &
Особиста оцінка: 0 - не дивився


Срібний реліз (на рейтинг впливає 50% завантаженого)
 Трекер:    Зареєстрований   

Завантажити / скачати фільм українською



відео для новачків



 Зареєстрований:   2019-12-03 21:47
 Розмір:   15.3 GB 
 Оцінка фільму:   10/10 (Голосів: 4)
   
Інші релізи
   Гладіатор [Театральна версія] / Gladiator [Theatrical Cut] (2000) Hybrid 1080p [Open Matte] 2xUkr/Eng | Sub Eng kryk-v.ya.  1 / 0   23.37 GB   2019-06-21 17:12 
   Гладіатор [Театральна версія] / Gladiator [Theatrical Cut] (2000) HybridRip 1080p H.265 2xUkr/Eng | Sub Eng -Star-Lord-  3 / 0   14.33 GB   2019-06-11 21:24 
   Гладіатор [Театральна версія] / Gladiator [Theatrical Cut] (2000) AVC 2xUkr/Eng [Open Matte] Arsenfpu  4 / 3   2.12 GB   2019-01-07 15:12 
   Гладіатор [Театральна версія] / Gladiator [Theatrical Cut] (2000) AVC 2xUkr/Eng | Sub Eng drop_plz  3 / 1   4.37 GB   2018-10-12 09:22 
   Гладіатор [Розширена версія] / Gladiator [Extended Cut] (2000) UHD 4K-mini 2160p HDR H.265 Ukr/Eng | Sub Eng Babamin  5 / 0   27.31 GB   2018-08-29 22:40 
   Гладіатор [Розширена версія] / Gladiator [Extended Cut] (2000) Remux 1080p Ukr/Eng | Sub Eng | 10th Anniversary Remast. famous37  4 / 0   27.05 GB   2017-02-28 00:46 
   Гладіатор / Gladiator (2000) 1080p Ukr/Eng | Sub Eng ratbol  3 / 0   15.38 GB   2013-12-19 12:51 
   Гладіатор / Gladiator (2000) 720p Ukr/Eng | Sub Eng ratbol  3 / 0   7.95 GB   2013-12-19 12:51 
   Гладіатор [Театральна версія] / Gladiator [Theatrical Cut] (2000) Ukr/Eng | Sub Eng karvai0  3 / 0   2.59 GB   2013-11-28 21:17 
   Гладіатор [Розширена версія] / Gladiator [Extended Cut] (2000) 720p Ukr/Eng | Sub Eng braveboy  1 / 0   12.47 GB   2013-10-06 06:11 
   Гладіатор [Розширена версія] / Gladiator [Extended Cut] (2000) Ukr/Eng | Sub Eng Romario_O  9 / 0   3.45 GB   2009-09-10 21:48 
Ваш часовий пояс: GMT + 2 Години

Нова тема   Відповісти