Спартак / Spartacus [55th Anniversary Restored Edition] (1960) 1080p H.265 Ukr/Eng | Sub Eng

Нові коментарі

Нова тема   Відповісти
Автор Повідомлення
Anonymous 







2019-12-03 21:42  
Спартак / Spartacus [55th Anniversary Restored Edition] (1960) 1080p H.265 Ukr/Eng | Sub Eng

Спартак / Spartacus [55th Anniversary Restored Edition] (1960) 1080p H.265 Ukr/Eng | Sub Eng


Жанр: драма, історичний, пригодницький, біографічний
Країна: США
Кінокомпанія: Bryna Productions / Universal Pictures
Режисер: Стенлі Кубрик / Stanley Kubrick
Актори: Кірк Дуглас / Kirk Douglas, Лоуренс Олів’є / Laurence Olivier, Джін Сімонс / Jean Simmons, Чарльз Лоутон / Charles Laughton, Пітер Устінов / Peter Ustinov, Тоні Кертіс / Tony Curtis

Сюжет:
Екранізація одноіменного рамана Говарда Фаста про гладіатора Спартака, його кохану Варинію та марнославного римського патриція Красса. Нездоланне прагнення волі спонукає Спартака підняти легендарне повстання рабів, що стало важливою віхою світової історії.

Тривалість: 03:16:37
Якість: [55th Anniversary Restored Edition]

Відео:
кодек: H.265 (HEVC)
розмір кадру: 1920 x 872
бітрейт: 10 664 кб/с
бітова глибина: 10 біт

Увага! Перед завантаженням переконайтесь, що ваш пристрій відтворення (та/або ПЗ) підтримує H.265 (HEVC)

Аудіо # 1:
мова: українська
переклад: двоголосий закадровий
кодек: AC-3 2.0
бітрейт: 192 кб/с

Аудіо # 2:
мова: англійська
переклад: оригінал
кодек: 5.1
бітрейт: 1510 кб/с

Субтитри # 1-2: (Forced, Full)
мова: українська
тип: програмні (м'які)
формат: *.srt

Субтитри # 3: (Full)
мова: англійська
тип: програмні (м'які)
формат: *.srt


Info
Код:
General
Unique ID                                : 188484449865364722011904185838547404223 (0x8DCCC8DBDAA0D34E6DBB282FEA1A85BF)
Complete name                            : Spartacus (1960) 1080p H.265 [UKR_ENG] [Hurtom].
Format                                   :
Format version                           : Version 4
File size                                : 17.0 GiB
Duration                                 : 3 h 16 min
Overall bit rate                         : 12.4 Mb/s
Movie name                               : Спартак / Spartacus (1960)
Encoded date                             : UTC 2019-12-03 12:19:40
Writing application                      : v20.0.0 ('I Am The Sun') 64-bit
Writing library                          : libebml v1.3.5 + v1.4.8
Cover                                    : Yes
Attachments                              : Cover.jpg

Video
ID                                       : 1
Format                                   : HEVC
Format/Info                              : High Efficiency Video Coding
Format profile                           : Main [email protected]@High
Codec ID                                 : V_MPEGH/ISO/HEVC
Duration                                 : 3 h 16 min
Bit rate                                 : 10.7 Mb/s
Width                                    : 1 920 pixels
Height                                   : 872 pixels
Display aspect ratio                     : 2.2:1
Frame rate mode                          : Constant
Frame rate                               : 23.976 (24000/1001) FPS
Color space                              : YUV
Chroma subsampling                       : 4:2:0
Bit depth                                : 10 bits
Bits/(Pixel*Frame)                       : 0.266
Stream size                              : 14.6 GiB (86%)
Title                                    : Спартак / Spartacus (1960)
Writing library                          : x265 2.8+74-fd517ae68f93:[Windows][MSVC 1915][64 bit] 10bit
Encoding settings                        : cpuid=1111039 / frame-threads=13 / numa-pools=12 / wpp / no-pmode / no-pme / no-psnr / no-ssim / log-level=2 / input-csp=1 / input-res=1920x872 / interlace=0 / total-frames=11160 / level-idc=41 / high-tier=1 / uhd-bd=0 / ref=5 / no-allow-non-conformance / no-repeat-headers / annexb / no-aud / no-hrd / info / hash=0 / no-temporal-layers / open-gop / min-keyint=23 / keyint=240 / gop-lookahead=0 / bframes=14 / b-adapt=2 / b-pyramid / bframe-bias=0 / rc-lookahead=60 / lookahead-slices=4 / scenecut=40 / radl=0 / no-intra-refresh / ctu=32 / min-cu-size=8 / rect / amp / max-tu-size=32 / tu-inter-depth=4 / tu-intra-depth=4 / limit-tu=1 / rdoq-level=2 / dynamic-rd=0.00 / no-ssim-rd / signhide / no-tskip / nr-intra=0 / nr-inter=0 / no-constrained-intra / no-strong-intra-smoothing / max-merge=4 / limit-refs=2 / limit-modes / me=3 / subme=7 / merange=57 / temporal-mvp / weightp / weightb / no-analyze-src-pics / deblock=-3:-3 / no-sao / no-sao-non-deblock / rd=6 / no-early-skip / no-rskip / no-fast-intra / no-tskip-fast / no-cu-lossless / no-b-intra / no-splitrd-skip / rdpenalty=0 / psy-rd=2.00 / psy-rdoq=1.00 / no-rd-refine / no-lossless / cbqpoffs=0 / crqpoffs=0 / rc=crf / crf=21.0 / qcomp=0.60 / qpstep=4 / stats-write=0 / stats-read=0 / vbv-maxrate=50000 / vbv-bufsize=50000 / vbv-init=0.9 / crf-max=0.0 / crf-min=0.0 / ipratio=1.40 / pbratio=1.30 / aq-mode=1 / aq-strength=1.00 / no-cutree / zone-count=0 / no-strict-cbr / qg-size=32 / no-rc-grain / qpmax=69 / qpmin=0 / no-const-vbv / sar=1 / overscan=0 / videoformat=5 / range=0 / colorprim=2 / transfer=2 / colormatrix=2 / chromaloc=0 / display-window=0 / max-cll=0,0 / min-luma=0 / max-luma=1023 / log2-max-poc-lsb=8 / vui-timing-info / vui-hrd-info / slices=1 / no-opt-qp-pps / no-opt-ref-list-length-pps / no-multi-pass-opt-rps / scenecut-bias=0.05 / no-opt-cu-delta-qp / no-aq-motion / no-hdr / no-hdr-opt / no-dhdr10-opt / no-idr-recovery-sei / analysis-reuse-level=5 / scale-factor=0 / refine-intra=0 / refine-inter=0 / refine-mv=0 / no-limit-sao / ctu-info=0 / no-lowpass-dct / refine-mv-type=0 / copy-pic=1 / max-ausize-factor=1.0 / no-dynamic-refine / no-single-sei
Default                                  : Yes
Forced                                   : No

Audio #1
ID                                       : 2
Format                                   : AC-3
Format/Info                              : Audio Coding 3
Commercial name                          : Dolby Digital
Codec ID                                 : A_AC3
Duration                                 : 3 h 16 min
Bit rate mode                            : Constant
Bit rate                                 : 192 kb/s
Channel(s)                               : 2 channels
Channel layout                           : L R
Sampling rate                            : 48.0 kHz
Frame rate                               : 31.250 FPS (1536 SPF)
Bit depth                                : 16 bits
Compression mode                         : Lossy
Stream size                              : 270 MiB (2%)
Title                                    : / 2.0 Ch / 192 kbps / ДЗ / 1+1
Language                                 : Ukrainian
Service kind                             : Complete Main
Default                                  : Yes
Forced                                   : Yes

Audio #2
ID                                       : 3
Format                                   :
Format/Info                              : Digital Theater Systems
Codec ID                                 : A_DTS
Duration                                 : 3 h 16 min
Bit rate mode                            : Constant
Bit rate                                 : 1 509 kb/s
Channel(s)                               : 6 channels
Channel layout                           : C L R Ls Rs LFE
Sampling rate                            : 48.0 kHz
Frame rate                               : 93.750 FPS (512 SPF)
Bit depth                                : 24 bits
Compression mode                         : Lossy
Stream size                              : 2.07 GiB (12%)
Title                                    : / 5.1 Ch / 1509 kbps / Original
Language                                 : English
Default                                  : No
Forced                                   : No

Text #1
ID                                       : 4
Format                                   : UTF-8
Codec ID                                 : S_TEXT/UTF8
Codec ID/Info                            : UTF-8 Plain Text
Duration                                 : 4 min 7 s
Bit rate                                 : 136 b/s
Count of elements                        : 62
Stream size                              : 4.12 KiB (0%)
Title                                    : Forced
Language                                 : Ukrainian
Default                                  : Yes
Forced                                   : Yes

Text #2
ID                                       : 5
Format                                   : UTF-8
Codec ID                                 : S_TEXT/UTF8
Codec ID/Info                            : UTF-8 Plain Text
Duration                                 : 3 h 13 min
Bit rate                                 : 70 b/s
Count of elements                        : 1796
Stream size                              : 100.0 KiB (0%)
Title                                    : Full
Language                                 : Ukrainian
Default                                  : No
Forced                                   : No

Text #3
ID                                       : 6
Format                                   : UTF-8
Codec ID                                 : S_TEXT/UTF8
Codec ID/Info                            : UTF-8 Plain Text
Duration                                 : 3 h 5 min
Bit rate                                 : 46 b/s
Count of elements                        : 2051
Stream size                              : 62.9 KiB (0%)
Title                                    : Full
Language                                 : English
Default                                  : No
Forced                                   : No

Menu
00:00:00.000                             : en:Overture
00:04:03.368                             : en:Main Titles
00:07:44.547                             : en:A Disease Called Human Slavery
00:14:04.969                             : en:The Gladiatorial School
00:19:04.935                             : en:Varinia
00:31:55.872                             : en:Marcus Licinius Crassus
00:43:12.840                             : en:A Fight to the Death
00:53:02.971                             : en:Rebellion
01:01:46.494                             : en:Antoninus
01:20:17.980                             : en:Snails and Oysters
01:41:46.392                             : en:Routing The Romans
01:47:55.094                             : en:Entr'acte
01:50:17.398                             : en:Glabrus Is Sentenced
01:58:17.908                             : en:A Baby!
02:10:43.266                             : en:Betrayed
02:30:02.132                             : en:The Battle
02:39:35.117                             : en:"I Am Spartacus"
02:45:30.101                             : en:"a Bad Attack of Dignity"
02:51:55.104                             : en:Crassus Woos Varinia
03:00:56.318                             : en:Revealing the Rebel
03:10:08.870                             : en:At The Gates of Rome
03:13:42.409                             : en:The End
Світлини




Джерело: &
Особиста оцінка: 0 - не дивився


Срібний реліз (на рейтинг впливає 50% завантаженого)
 Трекер:    Зареєстрований   

Завантажити / скачати фільм українською



відео для новачків



 Зареєстрований:   2019-12-03 21:42
 Розмір:   16.99 GB 
 Оцінка фільму:   10/10 (Голосів: 2)
   
Інші релізи
   Спартак / Spartacus (1960) 720p Ukr/Eng | Sub Eng Загора  2 / 1   7.43 GB   2016-02-28 14:20 
   Спартак / Spartacus [Restored Edition] (1960) AVC Ukr/Eng | Sub Eng ninenine  4 / 0   2.73 GB   2016-02-27 18:05 
   Спартак / Spartacus (1960) Tanat13  3 / 0   2.8 GB   2013-03-05 23:05 
Ваш часовий пояс: GMT + 2 Години

Нова тема   Відповісти