Геркулес / Hercules (1997) 1080p H.265 2xUkr/Eng | Sub Eng

Нові коментарі

Нова тема   Відповісти
Автор Повідомлення
Anonymous 







2019-12-03 21:36  
Геркулес / Hercules (1997) 1080p H.265 2xUkr/Eng | Sub Eng

Геркулес / Hercules (1997) 1080p H.265 2xUkr/Eng | Sub Eng


Жанр: анімація, пригодницький, комедія
Країна: США
Кінокомпанія: Walt Disney Pictures, Walt Disney Feature Animation
Режисер: Рон Клементс, Джон Маскер
Актори: Тейт Донован, Джошуа Кітон, Роджер Барт, Денні ДеВіто, Джеймс Вудс, Сьюзен Іґан, Боб Ґолдтвейт, Метт Фрювер, Ріп Торн, Саманта Еґґар

Сюжет:
Правитель підземного царства Аїд підступом скинув нащадка богів з Олімпу і тепер, щоб повернутися на священну гору, Геркулес повинен здійснити подвиг і стати справжнім героєм. Разом з чарівним конем Пеґасом він б'ється з Титанами і чудовиськами вічної пітьми. Але найсерйозніше випробування чекає героя в царстві тіней, де Повелитель мороку заховав його кохану. Там, у віковій тиші підземелля, Геркулесові не допоможуть боги з далекого Олімпу, адже тільки добре серце і справжня любов здатні перемогти сили зла!

Тривалість: 01:33:12
Якість:

Відео:
кодек: H.265 (HEVC)
розмір кадру: 1920 x 1080
бітрейт: 5 931 кб/с
бітова глибина: 10 біт

Увага! Перед завантаженням переконайтесь, що ваш пристрій відтворення (та/або ПЗ) підтримує H.265 (HEVC)

Аудіо # 1:
мова: українська
переклад: професійний дубльований
кодек: AC-3 2.0
бітрейт: 192 кб/с

Аудіо # 2:
мова: українська
переклад: двоголосий закадровий
кодек: AC-3 2.0
бітрейт: 192 кб/с

Аудіо # 3:
мова: англійська
переклад: оригінал
кодек: 5.1
бітрейт: 1510 кб/с

Субтитри # 1-2: (Full, SDH)
мова: англійська
тип: програмні (м'які)
формат: *.srt


Info
Код:
General
Unique ID                                : 61976650276246328310438585775985486787 (0x2EA044C7082235AFC3314E3BCB3F6BC3)
Complete name                            : Hercules (1997) 1080p H.265 [2xUKR_ENG] [Hurtom].
Format                                   :
Format version                           : Version 4
File size                                : 5.09 GiB
Duration                                 : 1 h 33 min
Overall bit rate                         : 7 825 kb/s
Movie name                               : Геркулес / Hercules (1997)
Encoded date                             : UTC 2019-12-02 08:20:18
Writing application                      : v20.0.0 ('I Am The Sun') 64-bit
Writing library                          : libebml v1.3.5 + v1.4.8
Cover                                    : Yes
Attachments                              : Cover.jpg

Video
ID                                       : 1
Format                                   : HEVC
Format/Info                              : High Efficiency Video Coding
Format profile                           : Main [email protected]@High
Codec ID                                 : V_MPEGH/ISO/HEVC
Duration                                 : 1 h 33 min
Bit rate                                 : 5 931 kb/s
Width                                    : 1 920 pixels
Height                                   : 1 080 pixels
Display aspect ratio                     : 16:9
Frame rate mode                          : Constant
Frame rate                               : 23.976 (23976/1000) FPS
Original frame rate                      : 23.976 (24000/1001) FPS
Color space                              : YUV
Chroma subsampling                       : 4:2:0
Bit depth                                : 10 bits
Bits/(Pixel*Frame)                       : 0.119
Stream size                              : 3.86 GiB (76%)
Title                                    : Геркулес / Hercules (1997)
Writing library                          : x265 2.8+74-fd517ae68f93:[Windows][MSVC 1915][64 bit] 10bit
Encoding settings                        : cpuid=1111039 / frame-threads=13 / numa-pools=12 / wpp / no-pmode / no-pme / no-psnr / no-ssim / log-level=2 / input-csp=1 / input-res=1920x1080 / interlace=0 / total-frames=43220 / level-idc=41 / high-tier=1 / uhd-bd=0 / ref=5 / no-allow-non-conformance / no-repeat-headers / annexb / no-aud / no-hrd / info / hash=0 / no-temporal-layers / open-gop / min-keyint=23 / keyint=240 / gop-lookahead=0 / bframes=11 / b-adapt=2 / b-pyramid / bframe-bias=0 / rc-lookahead=60 / lookahead-slices=4 / scenecut=40 / radl=0 / no-intra-refresh / ctu=32 / min-cu-size=8 / rect / amp / max-tu-size=32 / tu-inter-depth=4 / tu-intra-depth=4 / limit-tu=1 / rdoq-level=2 / dynamic-rd=0.00 / no-ssim-rd / signhide / no-tskip / nr-intra=0 / nr-inter=0 / no-constrained-intra / no-strong-intra-smoothing / max-merge=4 / limit-refs=2 / limit-modes / me=3 / subme=7 / merange=57 / temporal-mvp / weightp / weightb / no-analyze-src-pics / deblock=-3:-3 / no-sao / no-sao-non-deblock / rd=6 / no-early-skip / no-rskip / no-fast-intra / no-tskip-fast / no-cu-lossless / no-b-intra / no-splitrd-skip / rdpenalty=0 / psy-rd=2.00 / psy-rdoq=1.00 / no-rd-refine / no-lossless / cbqpoffs=0 / crqpoffs=0 / rc=crf / crf=19.5 / qcomp=0.60 / qpstep=4 / stats-write=0 / stats-read=0 / vbv-maxrate=50000 / vbv-bufsize=50000 / vbv-init=0.9 / crf-max=0.0 / crf-min=0.0 / ipratio=1.40 / pbratio=1.30 / aq-mode=1 / aq-strength=0.90 / no-cutree / zone-count=0 / no-strict-cbr / qg-size=32 / no-rc-grain / qpmax=69 / qpmin=0 / no-const-vbv / sar=1 / overscan=0 / videoformat=5 / range=0 / colorprim=2 / transfer=2 / colormatrix=2 / chromaloc=0 / display-window=0 / max-cll=0,0 / min-luma=0 / max-luma=1023 / log2-max-poc-lsb=8 / vui-timing-info / vui-hrd-info / slices=1 / no-opt-qp-pps / no-opt-ref-list-length-pps / no-multi-pass-opt-rps / scenecut-bias=0.05 / no-opt-cu-delta-qp / no-aq-motion / no-hdr / no-hdr-opt / no-dhdr10-opt / no-idr-recovery-sei / analysis-reuse-level=5 / scale-factor=0 / refine-intra=0 / refine-inter=0 / refine-mv=0 / no-limit-sao / ctu-info=0 / no-lowpass-dct / refine-mv-type=0 / copy-pic=1 / max-ausize-factor=1.0 / no-dynamic-refine / no-single-sei
Default                                  : Yes
Forced                                   : No

Audio #1
ID                                       : 2
Format                                   : AC-3
Format/Info                              : Audio Coding 3
Commercial name                          : Dolby Digital
Codec ID                                 : A_AC3
Duration                                 : 1 h 32 min
Bit rate mode                            : Constant
Bit rate                                 : 192 kb/s
Channel(s)                               : 2 channels
Channel layout                           : L R
Sampling rate                            : 48.0 kHz
Frame rate                               : 31.250 FPS (1536 SPF)
Bit depth                                : 16 bits
Compression mode                         : Lossy
Stream size                              : 126 MiB (2%)
Title                                    : / 2.0 Ch / 192 kbps / ПД / Megogo
Language                                 : Ukrainian
Service kind                             : Complete Main
Default                                  : Yes
Forced                                   : Yes

Audio #2
ID                                       : 3
Format                                   : AC-3
Format/Info                              : Audio Coding 3
Commercial name                          : Dolby Digital
Codec ID                                 : A_AC3
Duration                                 : 1 h 33 min
Bit rate mode                            : Constant
Bit rate                                 : 192 kb/s
Channel(s)                               : 2 channels
Channel layout                           : L R
Sampling rate                            : 48.0 kHz
Frame rate                               : 31.250 FPS (1536 SPF)
Bit depth                                : 16 bits
Compression mode                         : Lossy
Stream size                              : 128 MiB (2%)
Title                                    : / 2.0 Ch / 192 kbps / ДЗ / Novy Kanal
Language                                 : Ukrainian
Service kind                             : Complete Main
Default                                  : No
Forced                                   : No

Audio #3
ID                                       : 4
Format                                   :
Format/Info                              : Digital Theater Systems
Codec ID                                 : A_DTS
Duration                                 : 1 h 33 min
Bit rate mode                            : Constant
Bit rate                                 : 1 509 kb/s
Channel(s)                               : 6 channels
Channel layout                           : C L R Ls Rs LFE
Sampling rate                            : 48.0 kHz
Frame rate                               : 93.750 FPS (512 SPF)
Bit depth                                : 24 bits
Compression mode                         : Lossy
Stream size                              : 1 006 MiB (19%)
Title                                    : / 5.1 Ch / 1509 kbps / Original
Language                                 : English
Default                                  : No
Forced                                   : No

Text #1
ID                                       : 5
Format                                   : UTF-8
Codec ID                                 : S_TEXT/UTF8
Codec ID/Info                            : UTF-8 Plain Text
Duration                                 : 1 h 32 min
Bit rate                                 : 64 b/s
Count of elements                        : 1270
Stream size                              : 43.5 KiB (0%)
Title                                    : Full
Language                                 : English
Default                                  : No
Forced                                   : No

Text #2
ID                                       : 6
Format                                   : UTF-8
Codec ID                                 : S_TEXT/UTF8
Codec ID/Info                            : UTF-8 Plain Text
Duration                                 : 1 h 32 min
Bit rate                                 : 74 b/s
Count of elements                        : 1579
Stream size                              : 50.8 KiB (0%)
Title                                    : SDH
Language                                 : English
Default                                  : No
Forced                                   : No

Menu
00:00:00.000                             : :Chapter 01
00:00:32.824                             : :Chapter 02
00:02:28.690                             : :Chapter 03
00:05:16.566                             : :Chapter 04
00:07:55.391                             : :Chapter 05
00:10:59.617                             : :Chapter 06
00:14:23.195                             : :Chapter 07
00:18:28.649                             : :Chapter 08
00:20:12.628                             : :Chapter 09
00:21:01.468                             : :Chapter 10
00:25:29.986                             : :Chapter 11
00:28:21.324                             : :Chapter 12
00:32:08.927                             : :Chapter 13
00:35:20.743                             : :Chapter 14
00:39:12.308                             : :Chapter 15
00:44:26.246                             : :Chapter 16
00:48:29.156                             : :Chapter 17
00:51:32.547                             : :Chapter 18
00:53:47.390                             : :Chapter 19
00:55:20.650                             : :Chapter 20
00:57:49.632                             : :Chapter 21
01:01:18.341                             : :Chapter 22
01:03:47.615                             : :Chapter 23
01:07:44.977                             : :Chapter 24
01:10:27.890                             : :Chapter 25
01:15:17.513                             : :Chapter 26
01:17:08.457                             : :Chapter 27
01:19:13.331                             : :Chapter 28
01:20:55.100                             : :Chapter 29
01:23:44.477                             : :Chapter 30
01:26:01.239                             : :Chapter 31
01:27:03.176                             : :Chapter 32
01:33:11.961                             : :Chapter 33
Світлини




Джерело: &
Особиста оцінка: 0 - не дивився


Срібний реліз (на рейтинг впливає 50% завантаженого)
 Трекер:    Зареєстрований   

Завантажити / скачати мультфільм українською



відео для новачків



 Зареєстрований:   2019-12-03 21:36
 Розмір:   5.09 GB 
 Оцінка мультфільму:   10/10 (Голосів: 2)
   
Інші релізи
   Геркулес / Hercules (1997) AVC 2xUkr/Eng | Sub Eng igor911  12 / 0   1.84 GB   2017-12-29 23:28 
   Геркулес / Hercules (1997) 1080p 2xUkr/Eng | Sub Eng kino.  7 / 0   4.98 GB   2014-08-09 14:53 
   Геркулес / Hercules (1997) 720p 2xUkr/Eng kino.  6 / 0   2.89 GB   2014-06-20 14:47 
   Геркулес / Hercules (1997) 2xUkr Gelios  12 / 0   1.45 GB   2014-06-19 20:52 
Ваш часовий пояс: GMT + 2 Години

Нова тема   Відповісти