Сліпа лють / Blind Fury (1989) Remux 1080p 2xUkr/Eng | Sub Eng

Нові коментарі

Нова тема   Відповісти
Останній раз роздавалося MakRA (2020-09-29)
Автор Повідомлення
MakRA 
VIP


З нами з: 11.11.18
Востаннє: 29.09.20
Повідомлень: 1120

2019-12-03 01:06  
Сліпа лють / Blind Fury (1989) Remux 1080p 2xUkr/Eng | Sub Eng


Альтернативні обкладинки:



Жанр: екшн, кримінальний
Країна: США



Кінокомпанія: TriStar Pictures, Interscope Communications
Режисер: Філіп Нойс [Phillip Noyce]
Актори: Рутгер Гауер [Rutger Hauer], Террі О'Квінн [Terry O'Quinn], Брендон Колл [Brandon Call], Ноубл Віллінгем [Noble Willingham], Ліза Блонт [Lisa Blount], Нік Кассаветіс [Nick Cassavetes], Рік Овертон [Rick Overton], Рендал «Текс» Кобб [Randall 'Tex' Cobb], Чарльз Купер [Charles Cooper], Мег Фостер [Meg Foster]

Сюжет:
Минуло 20 років, перш ніж американець Нік Паркер зміг повернутися додому з В'єтнаму. На війні він втратив зір, але навчився мистецтву рукопашного бою. І тепер, щоб захистити родину свого друга, він змушений вступити у новий бій. Ніку не потрібно бачити своїх ворогів. Сліпа лють приведе його прямісінько до них...


Тривалість: 01:26:26
Якість: Remux 1080p [GER Transfer]
Відео:
кодек:
розмір кадру: 1920 х 1080
бітрейт: 25 Mб/с

Аудіо # 1:
мова: українська
переклад: багатоголосий закадровий | студія "Так Треба Продакшн"
кодек: 2.0 [стерео]
бітрейт: 192 кб/с

Аудіо # 2:
мова: українська
переклад: багатоголосий закадровий | студія "Так Треба Продакшн"
кодек: 2.0
бітрейт: 192 кб/с

Аудіо # 3:
мова: англійська
переклад: оригінал
кодек: -HD MA 2.0
бітрейт: 1647 кб/с

Аудіо # 4:
мова: англійська
переклад: оригінал
кодек: 2.0
бітрейт: 192 кб/с

Субтитри: (Full)
мова: англійська
тип: програмні (м'які)
формат: *.srt

Збережено оригінальні розділи, як на Blu-ray.
Info
General
Unique ID : 174190334620040220915275465298999932356 (0x830BD690C92DBBAF260DAEF402C275C4)
Complete name : I:\+Фільмографії- Рутгер Гауер [Rutger Oelsen Hauer]\Blind Fury (1989) Remux 1080p 2xUkrEng Sub Eng [Hurtom].
Format :
Format version : Version 4
File size : 16.4 GiB
Duration : 1 h 26 min
Overall bit rate mode : Variable
Overall bit rate : 27.2 Mb/s
Movie name : Сліпа лють / Blind Fury (1989) Remux 1080p 2xUkr/Eng | Sub Eng [Hurtom]
Encoded date : UTC 2019-12-01 20:42:26
Writing application : v25.0.0 ('Prog Noir') 64-bit
Writing library : libebml v1.3.6 + v1.4.9
Cover : Yes
Attachments : cover.jpg

Video
ID : 1
Format : AVC
Format/Info : Advanced Video Codec
Format profile : [email protected]
Format settings : CABAC / 2 Ref Frames
Format settings, CABAC : Yes
Format settings, Reference fra : 2 frames
Format settings, GOP : M=1, N=5
Codec ID : V_MPEG4/ISO/AVC
Duration : 1 h 26 min
Bit rate mode : Variable
Bit rate : 25.0 Mb/s
Maximum bit rate : 25.2 Mb/s
Width : 1 920 pixels
Height : 1 080 pixels
Display aspect ratio : 16:9
Frame rate mode : Constant
Frame rate : 23.976 (24000/1001) FPS
Color space : YUV
Chroma subsampling : 4:2:0
Bit depth : 8 bits
Scan type : Progressive
Bits/(Pixel*Frame) : 0.502
Stream size : 15.1 GiB (92%)
Title : Blind Fury (1989) Remux 1080p 2xUkr/Eng | Sub Eng [Hurtom]
Language : Ukrainian
Default : Yes
Forced : Yes

Audio #1
ID : 2
Format : AC-3
Format/Info : Audio Coding 3
Commercial name : Dolby Digital
Codec ID : A_AC3
Duration : 1 h 26 min
Bit rate mode : Constant
Bit rate : 192 kb/s
Channel(s) : 2 channels
Channel layout : L R
Sampling rate : 48.0 kHz
Frame rate : 31.250 FPS (1536 SPF)
Bit depth : 16 bits
Compression mode : Lossy
Stream size : 119 MiB (1%)
Title : MVO [ICTV] 2.0 | студія "Так Треба Продакшн"
Language : Ukrainian
Service kind : Complete Main
Default : Yes
Forced : Yes

Audio #2
ID : 3
Format : AC-3
Format/Info : Audio Coding 3
Commercial name : Dolby Digital
Codec ID : A_AC3
Duration : 1 h 26 min
Bit rate mode : Constant
Bit rate : 192 kb/s
Channel(s) : 2 channels
Channel layout : L R
Sampling rate : 48.0 kHz
Frame rate : 31.250 FPS (1536 SPF)
Bit depth : 16 bits
Compression mode : Lossy
Stream size : 119 MiB (1%)
Title : MVO [ІНТЕР] [K1] [НТН] 2.0 | студія "Так Треба Продакшн"
Language : Ukrainian
Service kind : Complete Main
Default : No
Forced : No

Audio #3
ID : 4
Format : XLL
Format/Info : Digital Theater Systems
Commercial name : -HD Master Audio
Codec ID : A_DTS
Duration : 1 h 26 min
Bit rate mode : Variable
Bit rate : 1 647 kb/s
Channel(s) : 2 channels
Channel layout : L R
Sampling rate : 48.0 kHz
Frame rate : 93.750 FPS (512 SPF)
Bit depth : 16 bits
Compression mode : Lossless
Stream size : 1 018 MiB (6%)
Title : Original -HD MA 2.0
Language : English
Default : No
Forced : No

Audio #4
ID : 5
Format : AC-3
Format/Info : Audio Coding 3
Commercial name : Dolby Digital
Codec ID : A_AC3
Duration : 1 h 26 min
Bit rate mode : Constant
Bit rate : 192 kb/s
Channel(s) : 2 channels
Channel layout : L R
Sampling rate : 48.0 kHz
Frame rate : 31.250 FPS (1536 SPF)
Bit depth : 16 bits
Compression mode : Lossy
Stream size : 119 MiB (1%)
Title : Original 2.0
Language : English
Service kind : Complete Main
Default : No
Forced : No

Text
ID : 6
Format : UTF-8
Codec ID : S_TEXT/UTF8
Codec ID/Info : UTF-8 Plain Text
Duration : 1 h 21 min
Bit rate : 31 b/s
Count of elements : 671
Stream size : 18.7 KiB (0%)
Title : Eng (Full)
Language : English
Default : No
Forced : No

Menu
00:00:00.000 : en:Chapter 1
00:09:52.049 : en:Chapter 2
00:20:51.750 : en:Chapter 3
00:30:58.815 : en:Chapter 4
00:40:03.567 : en:Chapter 5
00:50:01.456 : en:Chapter 6
01:04:10.596 : en:Chapter 7
01:14:44.354 : en:Chapter 8
01:22:19.267 : en:Chapter 9
Скріншоти
Джерело: &
Подяка п. bodia87 за доріжку від ICTV, п. SweetN за запис з ТБ доріжки від Інтера/К1/НТН, HDСlub'у за синхронізацію.
Особиста оцінка: 9 - давно не бачив настільки якісне кіно


Золотий реліз (завантажене не впливає на рейтинг)
 Трекер:    Зареєстрований   

Завантажити / скачати фільм українською



відео для новачків



 Зареєстрований:   2019-12-03 01:06
 Розмір:   16.41 GB 
 Оцінка фільму:   9.9/10 (Голосів: 15)
   
Інші релізи
   Сліпа лють / Blind Fury (1989) 2xUkr/Eng | Sub Eng igor911  2 / 0   1.45 GB   2018-04-30 10:16 
   Сліпа лють / Blind Fury (1989) AVC 2xUkr/Eng | Sub Eng bodia87  5 / 0   1.86 GB   2018-04-30 08:56 
   Сліпа лють / Blind Fury (1989) 720p Ukr/Eng | Sub Eng staf777  2 / 0   6.24 GB   2017-01-03 18:08 
O_omarella! 
Поважний учасник


З нами з: 14.06.13
Востаннє: 27.09.20
Повідомлень: 194

2020-06-13 12:12  
Фільм не поганий і для нашого часу.
Ваш часовий пояс: GMT + 2 Години

Нова тема   Відповісти