Задротські відеозаписи / Otaku no Video (1991)

Нові коментарі

Нова тема   Відповісти
Автор Повідомлення
rzhumen88 
Новенький


З нами з: 18.08.18
Востаннє: 25.01.20
Повідомлень: 7

2019-12-02 22:33  
Задротські відеозаписи / Otaku no Video (1991)

Задротські відеозаписи / Otaku no Video (1991)


Жанр: Комедія, Пародія, Лайв-Екшн
Країна: Японія



6.18 (1208 голосів)

Кінокомпанія: Gainax
Режисер: Такесі Морі
Ролі озвучують: Кодзі Цудзітані, Тосіхару Сакураі, Сігеру Накахара, Юко Кобаясі, Кікуко Іноуе, Юрі Амано, Акіо Оцука та інші

Сюжет:
Головний герой, середньостатистичний японець Кен Кубо, живе зі своєю дівчиною, Йосіко Уено. Одного разу він випадково зустрічає свого старого шкільного друга, Танаку, який знайомить Кена зі своїми друзями-задротами(отаку) (художницею, колекціонером моделей зброї, фанатом наукової фантастики, фанатом бойових мистецтв). Затоварищувавшись з ними, Кубо занурюється у життя отаку, через що його кидає дівчина. Передбачаючі негативне ставлення до свого нового захоплення, Кубо вирішує стати задротом з задротів та побудувати «Задротленд»


Тривалість: 1 серія: 50:00 (цілком серій: 2)
Перелік серій
1982 "Задротські відеозаписи"
1985 "Більш задротських відеозаписів"
Якість:
Відео:
кодек:
розмір кадру: 1520х1080
бітрейт: 8 504 kb/s

Аудіо # 1:
мова: українська
переклад: одноголосий закадровий
кодек: MP3
бітрейт: 192 kb/s

Аудіо # 2:
мова: японська
переклад: оригінал
кодек:
бітрейт: 667 kb/s

Джерело озвучення:
Info
General
Unique ID : 195195766354331899325410142903764997881 (0x92D9564F10BDEE1E19ACFEEE0EE356F9)
Complete name : D:\TORRENTS\Задротські Відеозаписи\Задротські Відеозаписи 1982.
Format :
Format version : Version 4
File size : 3.28 GiB
Duration : 50 min 4 s
Overall bit rate mode : Variable
Overall bit rate : 9 365 kb/s
Encoded date : UTC 2019-12-02 19:49:12
Writing application : v25.0.0 ('Prog Noir') 64-bit
Writing library : libebml v1.3.6 + v1.4.9

Video
ID : 1
Format : AVC
Format/Info : Advanced Video Codec
Format profile : High [email protected]
Format settings : CABAC / 8 Ref Frames
Format settings, CABAC : Yes
Format settings, Reference : 8 frames
Codec ID : V_MPEG4/ISO/AVC
Duration : 50 min 4 s
Bit rate : 8 504 kb/s
Width : 1 520 pixels
Height : 1 080 pixels
Display aspect ratio : 1.407
Frame rate mode : Constant
Frame rate : 23.976 (24000/1001) FPS
Color space : YUV
Chroma subsampling : 4:2:0
Bit depth : 10 bits
Scan type : Progressive
Bits/(Pixel*Frame) : 0.216
Stream size : 2.97 GiB (91%)
Title : [Kagura] Otaku no Video 1982 [ 1520x1080 Hi10P ]
Language : Japanese
Default : Yes
Forced : No

Audio #1
ID : 2
Format : MPEG Audio
Format version : Version 1
Format profile : Layer 3
Codec ID : A_MPEG/L3
Codec ID/Hint : MP3
Duration : 50 min 4 s
Bit rate mode : Constant
Bit rate : 192 kb/s
Channel(s) : 2 channels
Sampling rate : 44.1 kHz
Frame rate : 38.281 FPS (1152 SPF)
Compression mode : Lossy
Stream size : 68.8 MiB (2%)
Title : vk.com/ukrop_bob
Language : Ukrainian
Default : Yes
Forced : Yes

Audio #2
ID : 3
Format :
Format/Info : Free Lossless Audio Codec
Codec ID : A_FLAC
Duration : 50 min 4 s
Bit rate mode : Variable
Bit rate : 667 kb/s
Channel(s) : 2 channels
Channel layout : L R
Sampling rate : 48.0 kHz
Frame rate : 11.719 FPS (4096 SPF)
Bit depth : 16 bits
Compression mode : Lossless
Stream size : 239 MiB (7%)
Writing library : libFLAC 1.3.0 (UTC 2013-05-26)
Language : Japanese
Default : No
Forced : No
Скріншоти




Джерело:
Особиста оцінка: 8 - мені сподобалося


 Трекер:    Зареєстрований   

Завантажити / скачати аніме українською



відео для новачків



 Зареєстрований:   2019-12-05 15:57
 Розмір:   6.51 GB 
 Оцінка аніме:   8.7/10 (Голосів: 3)
   
Ваш часовий пояс: GMT + 2 Години

Нова тема   Відповісти