Заборонений (2019) 1080p

Нові коментарі

Нова тема   Відповісти
Автор Повідомлення
sergiyko.5 
VIP


З нами з: 25.02.16
Востаннє: 07.12.19
Повідомлень: 2805

2019-12-02 21:35  
Заборонений (2019) 1080p


Заборонений (2019) 1080p

Жанр: драма, історичний
Країна: Україна



Студія: UM-GROUP
Режисер: Роман Бровко
Актори: Дмитро Ярошенко, Мирослава Філіппович, Карина Шереверова, Роман Халаїмов, Олег Масленников, Денис Роднянський, Діана Розовлян, Євгенія Гладій

Сюжет:
Ім’я поета Василя Семеновича Стуса знає практично кожен житель України: адже його твори вивчаються в школі. Історія митця пронизана неймовірним трагізмом, тому що ця людина була борцем за права й національну культуру. Автор розповідає глядачам про останні дні життя творця і його смерть у радянському таборі в 1985 році.


Бюджет: 1 400 000 $ (38 500 000 UAH)
Касові збори в Україні: 277 969 $ (6 970 433 UAH)


Тривалість: 01:44:54
Якість:

Відео: кодек: розмір кадру: 1920 x 808 бітрейт: 3992 кб/с
Аудіо: мова: українська переклад: оригінал кодек: AАС 2.0 бітрейт: 192 кб/с
Про файл:
General
Unique ID : 234211601571487646855552173733493063825 (0xB03383807690CF988B8E431E9CE3C091)
Complete name : D:\Documents\Torrents\FILM\Заборонений.2019.1080p..
Format :
Format version : Version 4
File size : 3.07 GiB
Duration : 1 h 44 min
Overall bit rate : 4 187 kb/s
Movie name : Заборонений 2019 rip by sergiyko
Encoded date : UTC 2019-12-02 19:09:25
Writing application : v40.0.0 ('Old Town Road + Pony') 64-bit
Writing library : libebml v1.3.9 + v1.5.2
Cover : Yes
Attachments : cover.jpg

Video
ID : 1
Format : AVC
Format/Info : Advanced Video Codec
Format profile : [email protected]
Format settings : CABAC / 3 Ref Frames
Format settings, CABAC : Yes
Format settings, Reference : 3 frames
Format settings, GOP : M=1, N=72
Codec ID : V_MPEG4/ISO/AVC
Duration : 1 h 44 min
Bit rate : 3 992 kb/s
Width : 1 920 pixels
Height : 808 pixels
Display aspect ratio : 2.40:1
Frame rate mode : Constant
Frame rate : 24.000 FPS
Color space : YUV
Chroma subsampling : 4:2:0
Bit depth : 8 bits
Scan type : Progressive
Bits/(Pixel*Frame) : 0.107
Stream size : 2.93 GiB (95%)
Language : Ukrainian
Default : Yes
Forced : No

Audio
ID : 2
Format : LC
Format/Info : Advanced Audio Codec Low Complexity
Codec ID : A_AAC-2
Duration : 1 h 44 min
Bit rate : 192 kb/s
Channel(s) : 2 channels
Channel layout : L R
Sampling rate : 48.0 kHz
Frame rate : 46.875 FPS (1024 SPF)
Compression mode : Lossy
Stream size : 144 MiB (5%)
Language : Ukrainian
Default : Yes
Forced : No
Скріншоти:


Придбав: sergiyko

Смерть ворогам України!


Золотий реліз (завантажене не впливає на рейтинг)
 Трекер:    Зареєстрований   

Завантажити / скачати український фільм



відео для новачків



 Зареєстрований:   2019-12-02 21:35
 Розмір:   3.07 GB 
 Оцінка фільму:   9.5/10 (Голосів: 26)
   
sergiyko.5 
VIP


З нами з: 25.02.16
Востаннє: 07.12.19
Повідомлень: 2805

2019-12-02 21:53  

Жока 
Частий відвідувач


З нами з: 29.11.19
Востаннє: 07.12.19
Повідомлень: 45

2019-12-02 23:05  
Щиро дякую!
10alexs 
VIP


З нами з: 26.02.09
Востаннє: 07.12.19
Повідомлень: 320

2019-12-03 11:11  
Чудовий фільм
[email protected] 
Новенький


З нами з: 15.12.16
Востаннє: 06.12.19
Повідомлень: 1

2019-12-03 14:10  
Дякую, давно очікува на це фільм.
iwan wan 
VIP


З нами з: 01.10.09
Востаннє: 07.12.19
Повідомлень: 1984

2019-12-03 14:37  
Фільм розчарування, фактично саме цікаве показали в трейлері ...
siromakha 
Новенький


З нами з: 01.08.19
Востаннє: 07.12.19
Повідомлень: 17

2019-12-03 16:34  
На диво слабенькою вийшла ця довгоочікувана для мене стрічка. Особливо неприємно вразив "картонний" та неживий Стус, який чомусь в повсякденні спілкується мов літератор - граммар - наці зі 100 річним стажем роботи.

Одначе дякую за те що виклали.. Та вдруге переглядати не хочеться

Ваш часовий пояс: GMT + 2 Години

Нова тема   Відповісти