Вокс Люкс / Vox Lux (2018) Remux 1080p Ukr/Eng | Sub Eng

Нові коментарі

Нова тема   Відповісти
Автор Повідомлення
Anonymous 







2019-12-02 21:20  
Вокс Люкс / Vox Lux (2018) Remux 1080p Ukr/Eng | Sub Eng

Вокс Люкс / Vox Lux (2018) Remux 1080p Ukr/Eng | Sub Eng


Жанр: драма
Країна: США





Кінокомпанія: Andrew Lauren Productions (ALP), Bold Films, Killer Films
Режисер: Брейді Корбет
Актори: Наталі Портман, Стейсі Мартін, Джуд Лоу, Дженніфер Елі, Реффі Кессіді, Крістофер Ебботт, Марія Діззія, Мэг Гибсон, Дэниэл Лондон, Майкл Річардсон, Метт Сервітто, Лесли Силва та інші

Сюжет:
Селесті, можна сказати, дуже пощастило у житті. Усе почалося ще у шкільні роки, коли її однокласник вирішив влаштувати у школі стрілянину. Дівчина тільки дивом вціліла, що не можна сказати про інших дітей. Як прояв співчуття талановита Селеста вирішила записати пісню. Цей виступ потрапив на федеральний канал, а потім і на очі продюсерів, які запропонували їй контракт із лейблом. Із того моменту пройшло 20 років, Селеста стала світовою знаменитістю, яку люблять у кожному куточку нашої планети. І весь цей час вона живе із психологічною травмою, завдяки якій жінка і стала популярною.


Тривалість: 01:54:28
Якість: Remux 1080p
Відео:
кодек:
розмір кадру: 1920x1080
бітрейт: ~20.9 мб/с

Аудіо # 1:
мова: українська
переклад: багатоголосий закадровий
кодек: 5.1
бітрейт: 384 кб/с

Аудіо # 2:
мова: англійська
переклад: оригінал
кодек: 5.1
бітрейт: 448 кб/с

Аудіо # 3:
мова: англійська
переклад: оригінал
кодек: -HD MA 5.1
бітрейт: 3585 кб/с

Субтитри: (Full)
мова: англійська
тип: програмні (м'які)
формат: *.srt

Субтитри: (SDH)
мова: англійська
тип: програмні (м'які)
формат: *.srt
Info
General
Complete name : Vox Lux (2018) Blu-Ray Remux 1080p [ukr,eng] [ViDeO_Hurtom].
Format :
Format version : Version 4
File size : 20.2 GiB
Duration : 1 h 54 min
Overall bit rate mode : Variable
Overall bit rate : 25.3 Mb/s
Encoded date : UTC 2020-12-10 04:53:43
Writing application : v30.1.0 ('Forever And More') 64-bit
Writing library : libebml v1.3.6 + v1.4.9
Cover : Yes
Attachments : cover.jpeg

Video
ID : 1
Format : AVC
Format/Info : Advanced Video Codec
Format profile : [email protected]
Format settings : CABAC / 4 Ref Frames
Format settings, CABAC : Yes
Format settings, RefFrames : 4 frames
Codec ID : V_MPEG4/ISO/AVC
Duration : 1 h 54 min
Bit rate mode : Variable
Bit rate : 20.9 Mb/s
Maximum bit rate : 36.0 Mb/s
Width : 1 920 pixels
Height : 1 080 pixels
Display aspect ratio : 16:9
Frame rate mode : Constant
Frame rate : 23.976 (24000/1001) FPS
Color space : YUV
Chroma subsampling : 4:2:0
Bit depth : 8 bits
Scan type : Progressive
Bits/(Pixel*Frame) : 0.420
Stream size : 16.7 GiB (83%)
Language : English
Default : Yes
Forced : No

Audio #1
ID : 2
Format : AC-3
Format/Info : Audio Coding 3
Commercial name : Dolby Digital
Codec ID : A_AC3
Duration : 1 h 54 min
Bit rate mode : Constant
Bit rate : 384 kb/s
Channel(s) : 6 channels
Channel layout : L R C LFE Ls Rs
Sampling rate : 48.0 kHz
Frame rate : 31.250 FPS (1536 SPF)
Bit depth : 16 bits
Compression mode : Lossy
Stream size : 314 MiB (2%)
Title : 5.1 | 384
Language : Ukrainian
Service kind : Complete Main
Default : Yes
Forced : No

Audio #2
ID : 3
Format : AC-3
Format/Info : Audio Coding 3
Commercial name : Dolby Digital
Codec ID : A_AC3
Duration : 1 h 54 min
Bit rate mode : Constant
Bit rate : 448 kb/s
Channel(s) : 6 channels
Channel layout : L R C LFE Ls Rs
Sampling rate : 48.0 kHz
Frame rate : 31.250 FPS (1536 SPF)
Bit depth : 16 bits
Compression mode : Lossy
Stream size : 367 MiB (2%)
Title : 5.1 | 448
Service kind : Complete Main
Default : No
Forced : No

Audio #3
ID : 4
Format : XLL
Format/Info : Digital Theater Systems
Commercial name : -HD Master Audio
Codec ID : A_DTS
Duration : 1 h 54 min
Bit rate mode : Variable
Bit rate : 3 585 kb/s
Channel(s) : 6 channels
Channel layout : C L R Ls Rs LFE
Sampling rate : 48.0 kHz
Frame rate : 93.750 FPS (512 SPF)
Bit depth : 24 bits
Compression mode : Lossless
Stream size : 2.87 GiB (14%)
Title : -HD MA 5.1 | 3585
Language : English
Default : No
Forced : No

Text #1
ID : 5
Format : UTF-8
Codec ID : S_TEXT/UTF8
Codec ID/Info : UTF-8 Plain Text
Duration : 1 h 48 min
Bit rate : 72 b/s
Count of elements : 1609
Stream size : 57.4 KiB (0%)
Title : Full
Language : English
Default : No
Forced : No

Text #2
ID : 6
Format : UTF-8
Codec ID : S_TEXT/UTF8
Codec ID/Info : UTF-8 Plain Text
Duration : 1 h 48 min
Bit rate : 76 b/s
Count of elements : 1703
Stream size : 60.7 KiB (0%)
Title : SDH
Language : English
Default : No
Forced : No

Menu
00:00:00.000 : :绗?01 绔?
00:09:16.931 : :绗?02 绔?
00:17:29.173 : :绗?03 绔?
00:26:58.242 : :绗?04 绔?
00:36:10.960 : :绗?05 绔?
00:49:39.852 : :绗?06 绔?
01:11:39.128 : :绗?07 绔?
01:16:52.441 : :绗?08 绔?
01:24:37.322 : :绗?09 绔?
01:31:45.834 : :绗?10 绔?
01:36:05.343 : :绗?11 绔?
01:49:42.868 : :绗?12 绔?
Скріншоти


Велика подяка за звук п.PuMa.ua , kryk-v.ya.
Джерело:
Особиста оцінка: 7 - моїй подрузі не сподобалося


Золотий реліз (завантажене не впливає на рейтинг)
 Трекер:    Зареєстрований   

Завантажити / скачати фільм українською



відео для новачків



 Зареєстрований:   2020-12-10 23:22
 Розмір:   20.24 GB 
 Оцінка фільму:   8.1/10 (Голосів: 10)
   
Інші релізи
   Вокс Люкс / Vox Lux (2018) Ukr/Eng antik_2008  3 / 0   2 GB   2020-12-10 23:21 
   Вокс Люкс / Vox Lux (2018) 720p Ukr/Eng | Sub Eng antik_2008  2 / 0   6.01 GB   2020-12-10 08:46 
   Вокс Люкс / Vox Lux (2018) 1080p Ukr/Eng | sub Eng sergiyko.5  2 / 0   10.95 GB   2020-12-10 08:28 
   Вокс Люкс / Vox Lux (2018) AVC Ukr/Eng | Sub Eng antik_2008  5 / 0   2.48 GB   2020-12-10 07:25 
alesandroua 
Свій


З нами з: 09.10.16
Востаннє: 23.01.21
Повідомлень: 64

2019-12-21 13:26  
Той випадок коли гра акторів, єфекти щвидкої перемотки подій є значно кращою за зміст, якій, нажаль, ну дууууже слабкий. Не захопило нажаль нічим.
Anonymous 







2020-12-10 23:22  
Торент файл оновлено. Заміна аудіо на якісніше.
Anonymous 







2021-01-22 11:36  
Не поганий фільм.
Ваш часовий пояс: GMT + 2 Години

Нова тема   Відповісти