Заборонений (2019) AVC

Нові коментарі

Нова тема   Відповісти
Автор Повідомлення
sergiyko.5 
Забанено
Забанено


З нами з: 25.02.16
Востаннє: 29.10.20
Повідомлень: 3648

2019-12-02 21:13  
Заборонений (2019) AVC


Заборонений (2019) AVC

Жанр: драма, історичний
Країна: Україна



Студія: UM-GROUP
Режисер: Роман Бровко
Актори: Дмитро Ярошенко, Мирослава Філіппович, Карина Шереверова, Роман Халаїмов, Олег Масленников, Денис Роднянський, Діана Розовлян, Євгенія Гладій

Сюжет:
Ім’я поета Василя Семеновича Стуса знає практично кожен житель України: адже його твори вивчаються в школі. Історія митця пронизана неймовірним трагізмом, тому що ця людина була борцем за права й національну культуру. Автор розповідає глядачам про останні дні життя творця і його смерть у радянському таборі в 1985 році.


Бюджет: 1 400 000 $ (38 500 000 UAH)
Касові збори в Україні: 277 969 $ (6 970 433 UAH)


Тривалість: 01:44:54
Якість:

Відео: кодек: розмір кадру: 832x350 бітрейт: 1446 кб/с
Аудіо: мова: українська переклад: оригінал кодек: AАС 2.0 бітрейт: 192 кб/с
Про файл:
General
Unique ID : 189339416072951241054479822723876782203 (0x8E7171F284686199DBADBEFDDE8E007B)
Complete name : D:\Documents\Torrents\FILM\Заборонений.2019..
Format :
Format version : Version 4
File size : 1.20 GiB
Duration : 1 h 44 min
Overall bit rate : 1 641 kb/s
Movie name : Заборонений 2019 rip by sergiyko
Encoded date : UTC 2019-12-02 19:08:51
Writing application : v40.0.0 ('Old Town Road + Pony') 64-bit
Writing library : libebml v1.3.9 + v1.5.2
Cover : Yes
Attachments : cover.jpg

Video
ID : 1
Format : AVC
Format/Info : Advanced Video Codec
Format profile : [email protected]
Format settings : 1 Ref Frames
Format settings, CABAC : No
Format settings, Reference : 1 frame
Format settings, GOP : M=1, N=72
Codec ID : V_MPEG4/ISO/AVC
Duration : 1 h 44 min
Bit rate : 1 446 kb/s
Width : 832 pixels
Height : 350 pixels
Display aspect ratio : 2.40:1
Frame rate mode : Constant
Frame rate : 24.000 FPS
Color space : YUV
Chroma subsampling : 4:2:0
Bit depth : 8 bits
Scan type : Progressive
Bits/(Pixel*Frame) : 0.207
Stream size : 1.06 GiB (88%)
Language : Ukrainian
Default : Yes
Forced : No

Audio
ID : 2
Format : LC
Format/Info : Advanced Audio Codec Low Complexity
Codec ID : A_AAC-2
Duration : 1 h 44 min
Bit rate : 192 kb/s
Channel(s) : 2 channels
Channel layout : L R
Sampling rate : 48.0 kHz
Frame rate : 46.875 FPS (1024 SPF)
Compression mode : Lossy
Delay relative to video : 21 ms
Stream size : 144 MiB (12%)
Language : Ukrainian
Default : Yes
Forced : No
Скріншоти:


Придбав: sergiyko

Смерть ворогам України!


Золотий реліз (завантажене не впливає на рейтинг)
 Трекер:    Зареєстрований   

Завантажити / скачати український фільм



відео для новачків



 Зареєстрований:   2019-12-02 21:13
 Розмір:   1.2 GB 
 Оцінка фільму:   9.6/10 (Голосів: 59)
   
Bilko D. 
Новенький


З нами з: 14.04.13
Востаннє: 27.02.21
Повідомлень: 5

2019-12-03 11:48  
ходив у кінотеатр. хотів би я, аби то був крутезний фільм, але таке ото... кіно, не достойне долі Стуса, бо гімняно зняте та й сценарій поганий. але на чомусь вчитися треба
qwasasqw 
VIP


З нами з: 01.01.11
Востаннє: 28.02.21
Повідомлень: 1694

2019-12-04 13:56  
Тут можна сміливо і справедливо сказати, що фільм ніякий..Зйомки дешеві..Сценарій поганий..Акторська гра в деяких акторів квн-ська) Дякую за реліз)

Додано через 2 години 45 хвилин 26 секунд:

Та все ж є позитив - я дістав із задніх рядів книжку віршів Стуса - та почав її перечитувати у вільний час)

Форкуш 
VIP


З нами з: 03.02.10
Востаннє: 27.02.21
Повідомлень: 2940

2019-12-21 13:15  
Був на зустрічі з Кіпіані...
Висновок не втішний. Більше половини фільму - повна вигадка і нісенітниця. Знімають про якогось вірменина, а за стіною вмирав Валерій Марченко, чи нібито роман з Аллою Горською - повна вигадка і через це Дмитро Стус вийшов з складу фільму. Тому, думайте.

virus101010 
Частий відвідувач


З нами з: 12.05.09
Востаннє: 15.02.21
Повідомлень: 40

2019-12-22 19:05  
Коли гра головного героя - найслабкіша сторона фільму.
Jurgenjurgen34 
Новенький


З нами з: 11.11.18
Востаннє: 27.02.21
Повідомлень: 2

2020-02-15 21:58  
з фільму викинуто діалог підсудного Василя Стуса з адвокатом Віктором Медведчуком. І взагалі адвоката не назвали Віктором Медведчуком, хоч насправді нинішній олігарх Медведчук і був тим самим адвокатом
svoboda181 
VIP


З нами з: 06.01.10
Востаннє: 16.12.20
Повідомлень: 267

2020-02-16 01:23  
sergiyko.5 написано:
Смерть ворогам України!
Конкретизувати можна?
eXteSy- 
VIP


З нами з: 06.04.09
Востаннє: 27.02.21
Повідомлень: 2286

2020-04-16 22:15  
Сильний фільм, мені сподобався, незважаючи на деякі мінуси.
Головним мінусом вважаю те, що Василя Стуса показали не живою людиною, а якимось ідолом, абсолютно білим персонажем без будь-яких напівтіней. Відчуття, що побачив людину з агітки, а не реальну та справжню.
Також не сподобалась якась пародійна гра Карини Шереверової. Хіба, може, прообраз персонажа дійсно таким був.
8,5/10

Ваш часовий пояс: GMT + 2 Години

Нова тема   Відповісти