Вокс Люкс / Vox Lux (2018) AVC Ukr/Eng | sub Eng

Нові коментарі

Нова тема   Відповісти
Автор Повідомлення
sergiyko.5 
VIP


З нами з: 25.02.16
Востаннє: 11.12.19
Повідомлень: 2812

2019-12-02 19:48  
Вокс Люкс / Vox Lux (2018) AVC Ukr/Eng | sub Eng


Вокс Люкс / Vox Lux (2018) AVC Ukr/Eng | sub Eng

Жанр: драма
Країна: США
Кінокомпанія: Killer Films, Bold Films, Andrew Lauren Productions
Режисер: Брейди Корбет
Актори: Наталі Портман, Стейсі Мартін, Джуд Лоу, Дженніфер Елі, Реффі Кессіді, Крістофер Ебботт, Марія Діззія, Мэг Гибсон, Дэниэл Лондон, Майкл Річардсон, Метт Сервітто, Лесли Силва та інші

Сюжет:
Селесті, можна сказати, дуже пощастило у житті. Усе почалося ще у шкільні роки, коли її однокласник вирішив влаштувати у школі стрілянину. Дівчина тільки дивом вціліла, що не можна сказати про інших дітей. Як прояв співчуття талановита Селеста вирішила записати пісню. Цей виступ потрапив на федеральний канал, а потім і на очі продюсерів, які запропонували їй контракт із лейблом. Із того моменту пройшло 20 років, Селеста стала світовою знаменитістю, яку люблять у кожному куточку нашої планети. І весь цей час вона живе із психологічною травмою, завдяки якій жінка і стала популярною.



Тривалість: 01:54:27
Якість:

Відео: кодек: розмір кадру: 1024 х 614 бітрейт: 2267 кб/с
Аудіо 1: мова: українська переклад: багатоголосий закадровий кодек: 2.0 бітрейт: 192 кб/с
Аудіо 2: мова: англійська переклад: оригінал кодек: 5.1 бітрейт: 448 кб/с
Субтитри: мова: англійська тип: програмні (м'які) формат: *.srt
Про файл:
General
Unique ID : 287168551752384463512000855232249452405 (0xD80AA6BAFB77359F1A34F60B71CDD775)
Complete name : D:\Documents\Torrents\FILM\Vox.Lux.2018.AVC.Ukr.Eng.
Format :
Format version : Version 4
File size : 2.33 GiB
Duration : 1 h 54 min
Overall bit rate : 2 909 kb/s
Movie name : Vox Lux 2018 by sergiyko
Encoded date : UTC 2019-12-02 17:44:33
Writing application : v40.0.0 ('Old Town Road + Pony') 64-bit
Writing library : libebml v1.3.9 + v1.5.2

Video
ID : 1
Format : AVC
Format/Info : Advanced Video Codec
Format profile : [email protected]
Format settings : CABAC / 10 Ref Frames
Format settings, CABAC : Yes
Format settings, Reference : 10 frames
Codec ID : V_MPEG4/ISO/AVC
Duration : 1 h 54 min
Bit rate : 2 267 kb/s
Width : 1 024 pixels
Height : 614 pixels
Display aspect ratio : 5:3
Frame rate mode : Constant
Frame rate : 23.976 (24000/1001) FPS
Color space : YUV
Chroma subsampling : 4:2:0
Bit depth : 8 bits
Scan type : Progressive
Bits/(Pixel*Frame) : 0.150
Stream size : 1.81 GiB (78%)
Title : Vox Lux 2018
Writing library : core 146 r2538 121396c
Encoding settings : cabac=1 / ref=10 / deblock=1:-2:-3 / analyse=0x3:0x113 / me=umh / subme=11 / psy=1 / psy_rd=0.95:0.07 / mixed_ref=1 / me_range=48 / chroma_me=1 / trellis=2 / 8x8dct=1 / cqm=0 / deadzone=21,11 / fast_pskip=1 / chroma_qp_offset=-3 / threads=6 / lookahead_threads=1 / sliced_threads=0 / nr=0 / decimate=1 / interlaced=0 / bluray_compat=0 / constrained_intra=0 / bframes=11 / b_pyramid=2 / b_adapt=2 / b_bias=0 / direct=3 / weightb=1 / open_gop=0 / weightp=2 / keyint=240 / keyint_min=23 / scenecut=40 / intra_refresh=0 / rc_lookahead=40 / rc=2pass / mbtree=0 / bitrate=2267 / ratetol=1.0 / qcomp=0.60 / qpmin=0 / qpmax=69 / qpstep=4 / cplxblur=20.0 / qblur=0.5 / vbv_maxrate=50000 / vbv_bufsize=62500 / nal_hrd=none / filler=0 / ip_ratio=1.40 / pb_ratio=1.30 / aq=1:1.00
Language : English
Default : Yes
Forced : No

Audio #1
ID : 2
Format : AC-3
Format/Info : Audio Coding 3
Commercial name : Dolby Digital
Codec ID : A_AC3
Duration : 1 h 54 min
Bit rate mode : Constant
Bit rate : 192 kb/s
Channel(s) : 2 channels
Channel layout : L R
Sampling rate : 48.0 kHz
Frame rate : 31.250 FPS (1536 SPF)
Compression mode : Lossy
Stream size : 157 MiB (7%)
Title : MOV 2ch
Language : Ukrainian
Service kind : Complete Main
Default : Yes
Forced : Yes

Audio #2
ID : 3
Format : AC-3
Format/Info : Audio Coding 3
Commercial name : Dolby Digital
Codec ID : A_AC3
Duration : 1 h 54 min
Bit rate mode : Constant
Bit rate : 448 kb/s
Channel(s) : 6 channels
Channel layout : L R C LFE Ls Rs
Sampling rate : 48.0 kHz
Frame rate : 31.250 FPS (1536 SPF)
Compression mode : Lossy
Stream size : 367 MiB (15%)
Title : Original
Language : English
Service kind : Complete Main
Default : No
Forced : No

Text #1
ID : 4
Format : UTF-8
Codec ID : S_TEXT/UTF8
Codec ID/Info : UTF-8 Plain Text
Duration : 1 h 48 min
Bit rate : 72 b/s
Count of elements : 1609
Stream size : 57.4 KiB (0%)
Title : Full
Language : English
Default : No
Forced : No

Text #2
ID : 5
Format : UTF-8
Codec ID : S_TEXT/UTF8
Codec ID/Info : UTF-8 Plain Text
Duration : 1 h 48 min
Bit rate : 76 b/s
Count of elements : 1703
Stream size : 60.7 KiB (0%)
Title : SDH
Language : English
Default : No
Forced : No

Menu
00:00:00.000 : en:Chapter 01
00:09:16.931 : en:Chapter 02
00:17:29.173 : en:Chapter 03
00:26:58.241 : en:Chapter 04
00:36:10.960 : en:Chapter 05
00:49:39.851 : en:Chapter 06
01:11:39.128 : en:Chapter 07
01:16:52.441 : en:Chapter 08
01:24:37.322 : en:Chapter 09
01:31:45.833 : en:Chapter 10
01:36:05.342 : en:Chapter 11
01:49:42.867 : en:Chapter 12
Скріншоти:


 Трекер:    Зареєстрований   

Завантажити / скачати фільм українською



відео для новачків



 Зареєстрований:   2019-12-02 19:48
 Розмір:   2.33 GB 
 Оцінка фільму:   8.9/10 (Голосів: 13)
   
Інші релізи
   Вокс Люкс / Vox Lux (2018) Remux 1080p Ukr/Eng | Sub Eng antik_2008  5 / 0   20.08 GB   2019-12-04 03:49 
   Вокс Люкс / Vox Lux (2018) Ukr/Eng antik_2008  20 / 1   2 GB   2019-12-04 03:39 
   Вокс Люкс / Vox Lux (2018) 720p Ukr/Eng | sub Eng sergiyko.5  7 / 1   5.62 GB   2019-12-02 20:36 
   Вокс Люкс / Vox Lux (2018) 1080p Ukr/Eng | sub Eng sergiyko.5  14 / 0   10.79 GB   2019-12-02 20:32 
[email protected] 
Свій


З нами з: 03.12.14
Востаннє: 03.12.19
Повідомлень: 71

2019-12-03 18:00  
сергійку, як кіно?
Ваш часовий пояс: GMT + 2 Години

Нова тема   Відповісти