Геній і безумець / The Professor and the Madman (2019) Remux 1080p Ukr/Eng | Sub Eng

Нові коментарі

Нова тема   Відповісти
Автор Повідомлення
Anonymous 







2019-12-02 17:24  
Геній і безумець / The Professor and the Madman (2019) Remux 1080p Ukr/Eng | Sub Eng




Жанр: біографічний, детектив, драма, трилер
Країна: Ірландія



Кінокомпанія: Fastnet Films, 22h22, Caviar Antwerp NV
Режисер: Фарад Сафініа / Farhad Safinia
Актори: Мел Ґібсон / Mel Gibson, Шон Пенн / Sean Penn, Едді Марсан / Eddie Marsan, Наталі Дормер / Natalie Dormer, Дженніфер Елі / Jennifer Ehle, Стів Куґан / Steve Coogan, Стівен Діллейн / Stephen Dillane, Іоан Ґруффудд / Ioan Gruffudd та інші.

Сюжет:
Англія середини XIX століття. Оксфордський професор Джеймс Мюррей працює над першим в історії словником англійської мови, а його головним партнером стає пацієнт психіатричної клініки для особливо небезпечних злочинців - доктор Вільям Майнор.


Тривалість: 02:04:42
Якість: Blu-Ray Remux 1080p

Відео:
кодек:
розмір кадру: 1920x1080
бітрейт: 30 Мб/с

Аудіо # 1:
мова: українська
переклад: професійний дубльований | студія Cinema Sound Production
кодек: 2.0 [стерео]
бітрейт: 192 кб/с

Аудіо # 2:
мова: англійська
переклад: оригінал
кодек: 5.1
бітрейт: 448 кб/с

Аудіо # 3:
мова: англійська
переклад: оригінал
кодек: -HD MA 5.1
бітрейт: 1853 кб/с

Субтитри (Full, SHD):
мова: англійська
тип: програмні (м'які)
формат: *.srt
Info
Код:
General
Complete name                            : The Professor and the Madman (2019) Blu-Ray Remux 1080p [ukr,eng] [ViDeO_Hurtom].
Format                                   :
Format version                           : Version 4
File size                                : 27.1 GiB
Duration                                 : 2 h 4 min
Overall bit rate mode                    : Variable
Overall bit rate                         : 31.1 Mb/s
Movie name                               : The Professor and the Madman (2019) Blu-Ray Remux 1080p [ukr,eng] [ViDeO_Hurtom]
Encoded date                             : UTC 2019-12-02 12:19:41
Writing application                      : v30.1.0 ('Forever And More') 64-bit
Writing library                          : libebml v1.3.6 + v1.4.9
Cover                                    : Yes
Attachments                              : cover.jpg

Video
ID                                       : 1
Format                                   : AVC
Format/Info                              : Advanced Video Codec
Format profile                           : [email protected]
Format settings                          : CABAC / 4 Ref Frames
Format settings, CABAC                   : Yes
Format settings, RefFrames               : 4 frames
Codec ID                                 : V_MPEG4/ISO/AVC
Duration                                 : 2 h 4 min
Bit rate mode                            : Constant
Bit rate                                 : 30.0 Mb/s
Width                                    : 1 920 pixels
Height                                   : 1 080 pixels
Display aspect ratio                     : 16:9
Frame rate mode                          : Constant
Frame rate                               : 23.976 (24000/1001) FPS
Standard                                 : NTSC
Color space                              : YUV
Chroma subsampling                       : 4:2:0
Bit depth                                : 8 bits
Scan type                                : Progressive
Bits/(Pixel*Frame)                       : 0.603
Stream size                              : 24.9 GiB (92%)
Language                                 : English
Default                                  : Yes
Forced                                   : No
Color range                              : Limited
Color primaries                          : BT.709
Transfer characteristics                 : BT.709
Matrix coefficients                      : BT.709

Audio #1
ID                                       : 2
Format                                   : AC-3
Format/Info                              : Audio Coding 3
Commercial name                          : Dolby Digital
Codec ID                                 : A_AC3
Duration                                 : 2 h 4 min
Bit rate mode                            : Constant
Bit rate                                 : 192 kb/s
Channel(s)                               : 2 channels
Channel layout                           : L R
Sampling rate                            : 48.0 kHz
Frame rate                               : 31.250 FPS (1536 SPF)
Bit depth                                : 16 bits
Compression mode                         : Lossy
Stream size                              : 171 MiB (1%)
Title                                    : , 2 ch, 192 Кбт/с
Language                                 : Ukrainian
Service kind                             : Complete Main
Default                                  : Yes
Forced                                   : No

Audio #2
ID                                       : 3
Format                                   : AC-3
Format/Info                              : Audio Coding 3
Commercial name                          : Dolby Digital
Codec ID                                 : A_AC3
Duration                                 : 2 h 4 min
Bit rate mode                            : Constant
Bit rate                                 : 448 kb/s
Channel(s)                               : 6 channels
Channel layout                           : L R C LFE Ls Rs
Sampling rate                            : 48.0 kHz
Frame rate                               : 31.250 FPS (1536 SPF)
Bit depth                                : 16 bits
Compression mode                         : Lossy
Stream size                              : 400 MiB (1%)
Title                                    : , 6 ch,448 Кбт/с
Language                                 : English
Service kind                             : Complete Main
Default                                  : No
Forced                                   : No

Audio #3
ID                                       : 4
Format                                   : XLL
Format/Info                              : Digital Theater Systems
Commercial name                          : -HD Master Audio
Codec ID                                 : A_DTS
Duration                                 : 2 h 4 min
Bit rate mode                            : Variable
Bit rate                                 : 1 853 kb/s
Channel(s)                               : 6 channels
Channel layout                           : C L R Ls Rs LFE
Sampling rate                            : 48.0 kHz
Frame rate                               : 93.750 FPS (512 SPF)
Bit depth                                : 16 bits
Compression mode                         : Lossless
Stream size                              : 1.61 GiB (6%)
Title                                    : -HD MA, 6 ch, 1853 Кбт/с
Language                                 : English
Default                                  : No
Forced                                   : No

Text #1
ID                                       : 5
Format                                   : UTF-8
Codec ID                                 : S_TEXT/UTF8
Codec ID/Info                            : UTF-8 Plain Text
Duration                                 : 1 h 56 min
Bit rate                                 : 65 b/s
Count of elements                        : 1581
Stream size                              : 55.9 KiB (0%)
Title                                    : Full
Language                                 : English
Default                                  : No
Forced                                   : No

Text #2
ID                                       : 6
Format                                   : UTF-8
Codec ID                                 : S_TEXT/UTF8
Codec ID/Info                            : UTF-8 Plain Text
Duration                                 : 1 h 57 min
Bit rate                                 : 68 b/s
Count of elements                        : 1666
Stream size                              : 58.4 KiB (0%)
Title                                    : SDH
Language                                 : English
Default                                  : No
Forced                                   : No

Menu
00:00:00.000                             : en:Chapter 1
00:15:11.327                             : en:Chapter 2
00:42:26.335                             : en:Chapter 3
01:05:14.202                             : en:Chapter 4
01:26:20.550                             : en:Chapter 5
01:45:36.247                             : en:Chapter 6
Скріншоти



Джерело:
Особиста оцінка: 10 - без зайвих вагань рекомендую всім!


Золотий реліз (завантажене не впливає на рейтинг)
 Трекер:    Зареєстрований   

Завантажити / скачати фільм українською



відео для новачків



 Зареєстрований:   2019-12-02 17:24
 Розмір:   27.07 GB 
 Оцінка фільму:   9.7/10 (Голосів: 26)
   
Жока 
Забанено
Забанено


З нами з: 29.11.19
Востаннє: 07.12.19
Повідомлень: 35

2019-12-02 19:17  
Чудовий фільм!
Apple 
Свій


З нами з: 13.07.08
Востаннє: 23.09.20
Повідомлень: 140

2020-04-25 21:16  
Чудове кіно! Не зміг відірватись! Шкодую, шо не пішов в кінотеатр, проте, там би дратувався через людей, які постійно базікають Happy

10/10.
Дякую автору!

Ваш часовий пояс: GMT + 2 Години

Нова тема   Відповісти