Формула 1. Сезон 2019 (2019) 1080p 50fps Ukr/Eng/Int

Нові коментарі

Нова тема   Відповісти
Автор Повідомлення
sergiyko.5 
VIP


З нами з: 25.02.16
Востаннє: 07.12.19
Повідомлень: 2805

2019-12-02 16:08  
Формула 1. Сезон 2019 (2019) 1080p 50fps Ukr/Eng/Int


Формула 1. Сезон 2019 (2019) 1080p 50fps Ukr/Eng/Int

Жанр: Перегони Формули 1
Країна: -
Телеканал: FEED
Коментатор: Максим Подзігун, SkySports F1HD, Channel 4

Опис:
Формула 1 сезон 2019 року.




Якість:

Відео: кодек: розмір кадру: 1920 х 1080 бітрейт: 9643 кб/с 50 кадрів/с
Аудіо 1: мова: українська кодек: 2.0 бітрейт: 192 кб/с
Аудіо 2: мова: англійська кодек: 5.1 бітрейт: 384 кб/с
Аудіо 3: мова: англійська кодек: 5.1 бітрейт: 384 кб/с
Аудіо 4: мова: відсутня (інтершум) кодек: 5.1 бітрейт: 448 кб/с
Формула 1. Сезон 2019. Етап 10. Гран-Прі Великої Британії. Гонка (14.07.2019) 1080p 50fps Ukr/Eng/Int

Тривалість:
Про файл:
Скріншоти:
Формула 1. Сезон 2019. Етап 12. Гран-Прі Угорщини. Гонка (04.08.2019) 1080p 50fps Ukr/Eng/Int

Тривалість:
Про файл:
Скріншоти:
Формула 1. Сезон 2019. Етап 13. Гран-Прі Бельгії. Гонка (01.09.2019) 1080p 50fps Ukr/Eng/Int

Тривалість:
Про файл:
Скріншоти:
Формула 1. Сезон 2019. Етап 14. Гран-Прі Італії. Гонка (08.09.2019) 1080p 50fps Ukr/Eng/Int

Тривалість:
Про файл:
Скріншоти:
Формула 1. Сезон 2019. Етап 15. Гран-Прі Сингапуру. Гонка (20.09.2019) 1080p 50fps Ukr/Eng/Int


Тривалість: 03:05:51
Про файл:
General
Unique ID : 230740793060658811253919733220719130148 (0xAD970F6E29F727247D3B72D8E9CAF624)
Complete name : D:\Documents\Torrents\SPORT\Formula 1\Formula 1 2019 1080p\F1.2019.15.Singapore.Race..1080p.50fps.
Format :
Format version : Version 4
File size : 14.4 GiB
Duration : 3 h 5 min
Overall bit rate : 11.1 Mb/s
Movie name : F1.2019.15.Singapore.Race..1080p.50fps by sergiyko
Encoded date : UTC 2019-12-02 13:35:44
Writing application : v40.0.0 ('Old Town Road + Pony') 64-bit
Writing library : libebml v1.3.9 + v1.5.2

Video
ID : 1
Format : AVC
Format/Info : Advanced Video Codec
Format profile : [email protected]
Format settings : CABAC / 6 Ref Frames
Format settings, CABAC : Yes
Format settings, Reference : 6 frames
Codec ID : V_MPEG4/ISO/AVC
Duration : 3 h 5 min
Bit rate : 9 643 kb/s
Width : 1 920 pixels
Height : 1 080 pixels
Display aspect ratio : 16:9
Frame rate mode : Constant
Frame rate : 50.000 FPS
Color space : YUV
Chroma subsampling : 4:2:0
Bit depth : 8 bits
Scan type : Progressive
Bits/(Pixel*Frame) : 0.093
Stream size : 12.5 GiB (87%)
Title : F1.2019.15.Singapore.Race
Writing library : core 157 r2969 d4099dd
Encoding settings : cabac=1 / ref=6 / deblock=1:-1:-1 / analyse=0x3:0x133 / me=umh / subme=9 / psy=1 / psy_rd=1.00:0.15 / mixed_ref=1 / me_range=16 / chroma_me=1 / trellis=2 / 8x8dct=1 / cqm=0 / deadzone=21,11 / fast_pskip=1 / chroma_qp_offset=-3 / threads=24 / lookahead_threads=2 / sliced_threads=0 / nr=0 / decimate=1 / interlaced=0 / bluray_compat=0 / constrained_intra=0 / bframes=4 / b_pyramid=2 / b_adapt=2 / b_bias=0 / direct=3 / weightb=1 / open_gop=0 / weightp=2 / keyint=250 / keyint_min=25 / scenecut=40 / intra_refresh=0 / rc_lookahead=60 / rc=crf / mbtree=1 / crf=20.0 / qcomp=0.60 / qpmin=0 / qpmax=69 / qpstep=4 / ip_ratio=1.40 / aq=1:1.00
Language : English
Default : Yes
Forced : No

Audio #1
ID : 2
Format : AC-3
Format/Info : Audio Coding 3
Commercial name : Dolby Digital
Codec ID : A_AC3
Duration : 3 h 5 min
Bit rate mode : Constant
Bit rate : 192 kb/s
Channel(s) : 2 channels
Channel layout : L R
Sampling rate : 48.0 kHz
Frame rate : 31.250 FPS (1536 SPF)
Compression mode : Lossy
Stream size : 255 MiB (2%)
Title : Максим Подзігун
Language : Ukrainian
Service kind : Complete Main
Default : Yes
Forced : Yes

Audio #2
ID : 3
Format : AC-3
Format/Info : Audio Coding 3
Commercial name : Dolby Digital
Codec ID : A_AC3
Duration : 3 h 5 min
Bit rate mode : Constant
Bit rate : 384 kb/s
Channel(s) : 6 channels
Channel layout : L R C LFE Ls Rs
Sampling rate : 48.0 kHz
Frame rate : 31.250 FPS (1536 SPF)
Compression mode : Lossy
Delay relative to video : 190 ms
Stream size : 510 MiB (3%)
Title : SkySports F1HD
Language : English
Service kind : Complete Main
Default : No
Forced : No

Audio #3
ID : 4
Format : AC-3
Format/Info : Audio Coding 3
Commercial name : Dolby Digital
Codec ID : A_AC3
Duration : 3 h 5 min
Bit rate mode : Constant
Bit rate : 384 kb/s
Channel(s) : 6 channels
Channel layout : L R C LFE Ls Rs
Sampling rate : 48.0 kHz
Frame rate : 31.250 FPS (1536 SPF)
Compression mode : Lossy
Delay relative to video : 190 ms
Stream size : 510 MiB (3%)
Title : Channel 4
Language : English
Service kind : Complete Main
Default : No
Forced : No

Audio #4
ID : 5
Format : AC-3
Format/Info : Audio Coding 3
Commercial name : Dolby Digital
Codec ID : A_AC3
Duration : 3 h 5 min
Bit rate mode : Constant
Bit rate : 448 kb/s
Channel(s) : 6 channels
Channel layout : L R C LFE Ls Rs
Sampling rate : 48.0 kHz
Frame rate : 31.250 FPS (1536 SPF)
Compression mode : Lossy
Delay relative to video : 190 ms
Stream size : 596 MiB (4%)
Service kind : Complete Main
Default : No
Forced : No
Скріншоти:
Формула 1. Сезон 2019. Етап 16. Гран-Прі сусідньої країни. Гонка (29.09.2019) 1080p 50fps Ukr/Eng/Int

Тривалість:
Про файл:
Скріншоти:
Формула 1. Сезон 2019. Етап 17. Гран-Прі Японії. Гонка (13.10.2019) 1080p 50fps Ukr/Eng/Int

Тривалість:
Про файл:
Скріншоти:
Формула 1. Сезон 2019. Етап 20. Гран-Прі Бразилії. Гонка (17.11.2019) 1080p 50fps Ukr/Eng/Int

Тривалість:
Про файл:
Скріншоти:
Формула 1. Сезон 2019. Етап 21. Гран-Прі Абу-Дабі. Гонка (01.12.2019) 1080p 50fps Ukr/Eng/Int

Тривалість:
Про файл:
Скріншоти:
Ріп: sergiyko


Золотий реліз (завантажене не впливає на рейтинг)
 Трекер:    Зареєстрований   

Завантажити / скачати торрент



відео для новачків



 Зареєстрований:   2019-12-06 23:30
 Розмір:   135.74 GB 
 Оцінка:   10/10 (Голосів: 2)
   
sergiyko.5 
VIP


З нами з: 25.02.16
Востаннє: 07.12.19
Повідомлень: 2805

2019-12-02 16:16  
Маю намір зробити реліз до всіх гонок сезону 2019 року.

Перше відео гонки Сінгапуру має повний коментар Подзігуна, ніде у вільному доступі і з такою якісною картинкою немає.

sergiyko.5 
VIP


З нами з: 25.02.16
Востаннє: 07.12.19
Повідомлень: 2805

2019-12-06 23:32  
Додав сезони 10,12,13,14,16,17,20,21.
Ваш часовий пояс: GMT + 2 Години

Нова тема   Відповісти