Воно / It (2017) UHD Remux 4K 2160p Ukr/Eng | Sub Eng

Нові коментарі

Нова тема   Відповісти
Автор Повідомлення
Argentum 
VIP


З нами з: 25.09.11
Востаннє: 09.08.20
Повідомлень: 257

2019-12-02 17:04  
Воно / It (2017) UHD Remux 4K 2160p Ukr/Eng | Sub Eng

Воно / It (2017) UHD Remux 4K 2160p Ukr/Eng | Sub Eng


Жанр: жахи, драма
Країна: США



Кінокомпанія: New Line Cinema, Lin Pictures, Vertigo Entertainment, KatzSmith Productions
Режисер: Андрес Мускетті
Актори: Джейден Ліберер, Джеремі Рей Тейлор, Софія Лілліс, Фінн Вольфхард, Чоузен Джейкобс, Джек Грейзер, Вайатт Олефф, Білл Скарсгард та інші.

Сюжет:
Коли в містечку Деррі, штат Мен, починають пропадати діти, кілька хлопців стикаються зі своїми найбільшими страхами і змушені помірятися силами зі злісним клоуном Пеннивайз, чиї прояви жорстокості і список жертв йдуть в глиб століть.


Тривалість: 02:14:42
Якість: UHD Remux 2160p 4K
Відео:
кодек: H.265 (HEVC)
розмір кадру: 3840 х 2160
бітрейт: 49.9 Мб/с
бітова глибина: 10 біт
кольоровий простір: BT.2020 (HDR)

Увага! Перед завантаженням переконайтесь, що ваш пристрій відтворення (та/або ПЗ) підтримує H.265 (HEVC)

Аудіо # 1:
мова: українська
переклад: професійний дубльований | студія Postmodern
кодек: 5.1
бітрейт: 384 кб/с
Інформація про дубляж

Перекладач: Олег Колесніков
Режисер дубляжу: Катерина Брайковська
Звукорежисер: Антон Семикопенко
Звукорежисер перезапису: Микита Будаш
Ролі дублювали: Володимир Машук, Арсен Шавлюк, Віктор Григор'єв, Антоніна Хижняк, Генріх Малащинський, Олег Олександров, Андрій Фостренко, Максим Чумак, Дмитро Зленко, Павло Лі, Микита Тишкевич, Михайло Кришталь та інші
Аудіо # 2:
мова: англійська
переклад: оригінал
кодек: TrueHD Atmos 7.1
бітрейт: 3783 кб/с

Аудіо # 3:
мова: англійська
переклад: оригінал
кодек: 5.1
бітрейт: 640 кб/с

Субтитри 1: (форсовані)
мова: українська
тип: програмні (м'які)
формат: *.srt

Субтитри 2-3: (повні, SDH)
мова: англійська
тип: програмні (м'які)
формат: *.srt
Info
General
Unique ID : 218246012667400724491059330605686830697 (0xA430A731D1A45E611A3D0F3DCD91B669)
Complete name : It (2017) [Ukr, Eng] Remux 2160p [Hurtom].
Format :
Format version : Version 4
File size : 51.6 GiB
Duration : 2 h 14 min
Overall bit rate mode : Variable
Overall bit rate : 54.8 Mb/s
Movie name : It (2017)
Encoded date : UTC 2019-12-02 12:51:26
Writing application : v40.0.0 ('Old Town Road + Pony') 64-bit
Writing library : libebml v1.3.9 + v1.5.2
Attachments : it.2017.1_550.jpg

Video
ID : 1
Format : HEVC
Format/Info : High Efficiency Video Coding
Format profile : Main [email protected]@High
HDR format : SMPTE ST 2086, HDR10 compatible
Codec ID : V_MPEGH/ISO/HEVC
Duration : 2 h 14 min
Bit rate : 49.9 Mb/s
Width : 3 840 pixels
Height : 2 160 pixels
Display aspect ratio : 16:9
Frame rate mode : Constant
Frame rate : 23.976 (24000/1001) FPS
Color space : YUV
Chroma subsampling : 4:2:0 (Type 2)
Bit depth : 10 bits
Bits/(Pixel*Frame) : 0.251
Stream size : 47.0 GiB (91%)
Title : HEVC 3840*2160 HDR10 @ 49.9 Mb/s
Language : Multiple languages
Default : Yes
Forced : Yes
Color range : Limited
Color primaries : BT.2020
Transfer characteristics : PQ
Matrix coefficients : BT.2020 non-constant
Mastering display color pri : Display P3
Mastering display luminance : min: 0.0050 cd/m2, max: 4000 cd/m2
Maximum Content Light Level : 1097 cd/m2
Maximum Frame-Average Light : 158 cd/m2

Audio #1
ID : 2
Format : AC-3
Format/Info : Audio Coding 3
Commercial name : Dolby Digital
Codec ID : A_AC3
Duration : 2 h 14 min
Bit rate mode : Constant
Bit rate : 384 kb/s
Channel(s) : 6 channels
Channel layout : L R C LFE Ls Rs
Sampling rate : 48.0 kHz
Frame rate : 31.250 FPS (1536 SPF)
Compression mode : Lossy
Stream size : 370 MiB (1%)
Title : AC-3 5.1 @ 384 kb/s
Language : Ukrainian
Service kind : Complete Main
Default : Yes
Forced : Yes

Audio #2
ID : 3
Format : MLP FBA 16-ch
Format/Info : Meridian Lossless Packing FBA with 16-channel presentation
Commercial name : Dolby TrueHD with Dolby Atmos
Codec ID : A_TRUEHD
Duration : 2 h 14 min
Bit rate mode : Variable
Bit rate : 3 783 kb/s
Maximum bit rate : 7 701 kb/s
Channel(s) : 8 channels
Channel layout : L R C LFE Ls Rs Lb Rb
Sampling rate : 48.0 kHz
Frame rate : 1 200.000 FPS (40 SPF)
Compression mode : Lossless
Stream size : 3.56 GiB (7%)
Title : TrueHD Atmos 7.1 @ 3 783 kb/s
Language : English
Default : No
Forced : No
Number of dynamic objects : 11
Bed channel count : 1 channel
Bed channel configuration : LFE

Audio #3
ID : 4
Format : AC-3
Format/Info : Audio Coding 3
Commercial name : Dolby Digital
Codec ID : A_AC3
Duration : 2 h 14 min
Bit rate mode : Constant
Bit rate : 640 kb/s
Channel(s) : 6 channels
Channel layout : L R C LFE Ls Rs
Sampling rate : 48.0 kHz
Frame rate : 31.250 FPS (1536 SPF)
Compression mode : Lossy
Stream size : 617 MiB (1%)
Title : AC-3 5.1 @ 640 kb/s
Language : English
Service kind : Complete Main
Default : No
Forced : No

Text #1
ID : 5
Format : UTF-8
Codec ID : S_TEXT/UTF8
Codec ID/Info : UTF-8 Plain Text
Duration : 2 h 12 min
Bit rate : 2 b/s
Count of elements : 69
Stream size : 2.49 KiB (0%)
Title : Forced
Language : Ukrainian
Default : Yes
Forced : Yes

Text #2
ID : 6
Format : UTF-8
Codec ID : S_TEXT/UTF8
Codec ID/Info : UTF-8 Plain Text
Duration : 2 h 7 min
Bit rate : 39 b/s
Count of elements : 1380
Stream size : 37.3 KiB (0%)
Title : Full
Language : English
Default : No
Forced : No

Text #3
ID : 7
Format : UTF-8
Codec ID : S_TEXT/UTF8
Codec ID/Info : UTF-8 Plain Text
Duration : 2 h 14 min
Bit rate : 50 b/s
Count of elements : 1836
Stream size : 49.5 KiB (0%)
Title : SDH
Language : English
Default : No
Forced : No

Menu
00:00:00.000 : :Chapter 01
00:09:23.646 : :Chapter 02
00:18:31.860 : :Chapter 03
00:28:26.162 : :Chapter 04
00:38:36.981 : :Chapter 05
00:48:19.438 : :Chapter 06
00:59:30.775 : :Chapter 07
01:08:52.795 : :Chapter 08
01:16:58.822 : :Chapter 09
01:26:52.957 : :Chapter 10
01:38:15.306 : :Chapter 11
01:48:40.972 : :Chapter 12
02:04:07.898 : :Chapter 13
02:09:05.654 : :Chapter 14
Скріншоти









Джерело:
Особиста оцінка: 8 - мені сподобалося


Золотий реліз (завантажене не впливає на рейтинг)
 Трекер:    Зареєстрований   

Завантажити / скачати фільм українською



відео для новачків



 Зареєстрований:   2019-12-02 18:12
 Розмір:   51.58 GB 
 Оцінка фільму:   9/10 (Голосів: 4)
   
Інші релізи
   Під одним дахом / Sous le même toit (2017) 1080p Ukr/Fre ssTAss  4 / 0   6.68 GB   2020-06-09 14:10 
   Детройт / Detroit (2017) AVC Ukr/Eng | sub Eng Arsenfpu  7 / 0   2.68 GB   2020-03-14 12:46 
   Воно / It (2017) 1080p Ukr/Eng | Sub Eng Electroz  6 / 0   10.19 GB   2019-11-20 13:20 
   Воно / It (2017) Remux 1080p Ukr/Eng | Sub Eng igor911  3 / 0   26.55 GB   2019-11-20 10:28 
   Воно / It (2017) 720p Ukr/Eng | Sub Eng 11FrYkT  4 / 0   5.92 GB   2019-11-19 20:40 
   Воно / It (2017) AVC Ukr/Eng | Sub Eng 11FrYkT  7 / 0   2.42 GB   2019-11-19 20:24 
   Детройт / Detroit (2017) Remux 1080p Ukr/Eng | Sub Eng kryk-v.ya.  4 / 0   37.04 GB   2019-08-03 18:18 
   Детройт / Detroit (2017) AVC Ukr/Eng | Sub Eng Sando7  4 / 0   3.61 GB   2019-08-03 12:15 
   Детройт / Detroit (2017) 1080p Ukr/Eng | Sub Eng staf777  7 / 0   17.34 GB   2019-08-03 09:13 
   Детройт / Detroit (2017) 720p Ukr/Eng | Sub Eng staf777  4 / 0   7.82 GB   2019-08-02 22:58 
   Детройт / Detroit (2017) Ukr/Eng drop_plz  5 / 0   1.93 GB   2019-08-02 14:53 
   Останній портрет / Final Portrait (2017) 1080p Ukr/Eng staf777  0 / 0   6.4 GB   2018-10-17 19:14 
   Останній портрет / Final Portrait (2017) 720p Ukr/Eng staf777  2 / 0   3.35 GB   2018-10-15 12:22 
   Останній портрет / Final Portrait (2017) Ukr/Eng drop_plz  4 / 0   1.54 GB   2018-10-15 10:18 
   Воно / It (2017) igor911  12 / 0   1.45 GB   2017-12-20 12:13 
bot 
робот


З нами з: 30.09.07
Востаннє: 26.05.05
Повідомлень: 25203

2019-12-02 17:04  
Тему перенесено з Фільми в HD до форуму Анонси релізів


Argentum

bot 
робот


З нами з: 30.09.07
Востаннє: 26.05.05
Повідомлень: 25203

2019-12-02 18:11  
Тему перенесено з Анонси релізів до форуму Фільми в HD


Argentum

Ваш часовий пояс: GMT + 2 Години

Нова тема   Відповісти