Сяйво / The Shining [Director's Cut] (1980) UHD Remux 2160p, HDR, HDR10+, Dolby Vision TV DL Ukr/Eng | Sub Eng

Нові коментарі

Нова тема   Відповісти
Автор Повідомлення
Premer_Joker 
Частий відвідувач


З нами з: 22.01.13
Востаннє: 26.09.20
Повідомлень: 45

2019-12-02 15:04  
Сяйво / The Shining [Director's Cut] (1980) UHD Remux 2160p, HDR, HDR10+, Dolby Vision TV DL Ukr/Eng | Sub Eng

Сяйво / The Shining [Director's Cut] (1980) UHD Remux 2160p, HDR, HDR10+, Dolby Vision TV DL Ukr/Eng | Sub Eng


Жанр: жахи, драма
Країна: США



Кінокомпанія: Warner Bros., Hawk Films
Режисер: Стенлі Кубрік (Stanley Kubrick)
Актори: Джек Ніколсон, Шеллі Дювалл, Денні Ллойд, Скетман Крозерс, Баррі Нелсон, Філіп Стоун, Джо Туркел, Енн Джексон, Тоні Бертон, Лиі Белдам, Біллі Гібсон, Баррі Деннен, Девід Бекст, Меннінг Редвуд, Лайза Бернс, Луіз Бернс, Робін Паппас, Елісон Коулрідж, Бернелл Такер, Джана Шелдон, Кейт Фелпс, Норман Гей

Сюжет:
Тиша, сяючий білий сніг. Невеликий курортний готель самотньо загубився в горах. Загадкове і таємниче місце. Мало бажаючих попрацювати тут взимку. З чуток, готель населений привидами. Всі попередні охоронці вбивали своїх рідних, а потім закінчували і своє життя. Саме сюди в якості зимового сторожа приїхав письменник Джек Торренс з дружиною і маленьким сином Денні, який наділений рідкісним даром "сяйва".


Тривалість: 02:23:46
Якість: UHD Remux 4K 2160p
Відео:
кодек: H.265 (HEVC)
розмір кадру: 3840 х 2160
бітрейт: 75 600 кб/с
бітова глибина: 10 біт
кольоровий простір: BT.2020 (HDR)

Аудіо # 1:
мова: українська
переклад: багатоголосий закадровий (1+1)
кодек: 2.0
бітрейт: 640 кб/с

Аудіо # 2:
мова: англійська
переклад: оригінал
кодек: 5.1
бітрейт: 640 кб/с

Аудіо # 3:
мова: англійська
переклад: оригінал
кодек: -HD MA 5.1
бітрейт: 2 177 кб/с

Субтитри:
мова: українська (форсовані)
тип: програмні (м'які)
формат: *.srt

Субтитри:
мова: англійська
тип: програмні (м'які)
формат: *.srt
Info
General
Unique ID : 155953120686437973469139989855894003766 (0x75537A7F4ED403C47449B9CA960C6036)
Complete name : M:\torrent\Сяйво [The Shining [Director's Cut]] (1980) [UHD Remux 2160p, HDR, HDR10+, Dolby Vision TV DL] ().
Format :
Format version : Version 4
File size : 78.1 GiB
Duration : 2 h 23 min
Overall bit rate mode : Variable
Overall bit rate : 77.8 Mb/s
Movie name : Сяйво [Режисерська версія] / The Shining [Director's Cut] (1980) UHD Remux 2160p, HDR, HDR10+, Dolby Vision TV DL | Ukr/Eng | Sub Eng
Encoded date : UTC 2019-12-04 19:21:15
Writing application : v34.0.0 ('Sight and Seen') 64-bit
Writing library : libebml v1.3.7 + v1.5.0

Video #1
ID : 1
Format : HEVC
Format/Info : High Efficiency Video Coding
Format profile : Main [email protected]@High
HDR format : SMPTE ST 2094 App 4, Version 1, HDR10+ Profile B compatible
Codec ID : V_MPEGH/ISO/HEVC
Duration : 2 h 23 min
Bit rate : 74.3 Mb/s
Width : 3 840 pixels
Height : 2 160 pixels
Display aspect ratio : 16:9
Frame rate mode : Constant
Frame rate : 23.976 (24000/1001) FPS
Color space : YUV
Chroma subsampling : 4:2:0 (Type 2)
Bit depth : 10 bits
Bits/(Pixel*Frame) : 0.373
Stream size : 74.6 GiB (95%)
Title : Сяйво [Режисерська версія] / The Shining [Director's Cut] (1980) UHD Remux 2160p, HDR, HDR10+, Dolby Vision TV DL | Ukr/Eng | Sub Eng
Default : Yes
Forced : No
Color range : Limited
Color primaries : BT.2020
Transfer characteristics : PQ
Matrix coefficients : BT.2020 non-constant
Mastering display color primaries : Display P3
Mastering display luminance : min: 0.0050 cd/m2, max: 4000 cd/m2
Maximum Content Light Level : 1633 cd/m2
Maximum Frame-Average Light Level : 114 cd/m2

Video #2
ID : 2
Format : V_QUICKTIME
Codec ID : V_QUICKTIME
Duration : 2 h 23 min
Bit rate : 64.2 kb/s
Width : 1 920 pixels
Height : 1 080 pixels
Display aspect ratio : 16:9
Frame rate mode : Variable
Frame rate : 23.976 FPS
Bits/(Pixel*Frame) : 0.001
Stream size : 66.1 MiB (0%)
Default : No
Forced : No

Audio #1
ID : 3
Format : AC-3
Format/Info : Audio Coding 3
Commercial name : Dolby Digital
Codec ID : A_AC3
Duration : 2 h 23 min
Bit rate mode : Constant
Bit rate : 640 kb/s
Channel(s) : 2 channels
Channel layout : L R
Sampling rate : 48.0 kHz
Frame rate : 31.250 FPS (1536 SPF)
Bit depth : 16 bits
Compression mode : Lossy
Stream size : 658 MiB (1%)
Title : MVO (1+1)
Language : Ukrainian
Service kind : Complete Main
Default : Yes
Forced : No

Audio #2
ID : 4
Format : AC-3
Format/Info : Audio Coding 3
Commercial name : Dolby Digital
Codec ID : A_AC3
Duration : 2 h 23 min
Bit rate mode : Constant
Bit rate : 640 kb/s
Channel(s) : 6 channels
Channel layout : L R C LFE Ls Rs
Sampling rate : 48.0 kHz
Frame rate : 31.250 FPS (1536 SPF)
Bit depth : 16 bits
Compression mode : Lossy
Stream size : 658 MiB (1%)
Title : Original
Language : English
Service kind : Complete Main
Default : No
Forced : No

Audio #3
ID : 5
Format : XLL
Format/Info : Digital Theater Systems
Commercial name : -HD Master Audio
Codec ID : A_DTS
Duration : 2 h 23 min
Bit rate mode : Variable
Bit rate : 2 177 kb/s
Channel(s) : 6 channels
Channel layout : C L R Ls Rs LFE
Sampling rate : 48.0 kHz
Frame rate : 93.750 FPS (512 SPF)
Bit depth : 16 bits
Compression mode : Lossless
Stream size : 2.19 GiB (3%)
Title : Original
Language : English
Default : No
Forced : No

Text #1
ID : 6
Format : UTF-8
Codec ID : S_TEXT/UTF8
Codec ID/Info : UTF-8 Plain Text
Duration : 1 h 35 min
Bit rate : 24 b/s
Count of elements : 342
Stream size : 17.5 KiB (0%)
Title : Ukranian, Forced
Language : Ukrainian
Default : Yes
Forced : No

Text #2
ID : 7
Format : UTF-8
Codec ID : S_TEXT/UTF8
Codec ID/Info : UTF-8 Plain Text
Duration : 2 h 14 min
Bit rate : 40 b/s
Count of elements : 1301
Stream size : 39.7 KiB (0%)
Title : Original
Language : English
Default : No
Forced : No
Скріншоти
УВАГА! Релiз оновлено: додав оригiнальну дорiжку в контейнер. Прохання перекачати торрент.

Джерело: ExKinoRay
Особиста оцінка: 9 - давно не бачив настільки якісне кіно


Золотий реліз (завантажене не впливає на рейтинг)
 Трекер:    Зареєстрований   

Завантажити / скачати фільм українською



відео для новачків



 Зареєстрований:   2019-12-05 22:48
 Розмір:   78.11 GB 
 Оцінка фільму:   5.9/10 (Голосів: 8)
   
xxx83 
Новенький


З нами з: 19.05.17
Востаннє: 27.09.20
Повідомлень: 8

2019-12-02 16:41  
То хто комору відкрив? Аллах?
sandman 
VIP


З нами з: 12.08.12
Востаннє: 28.09.20
Повідомлень: 365

2019-12-02 19:08  
автору, безперечно, велика дяка за реліз. Але, до такої картинки дуже хотілося б хороший оригінальний звук (-HD MA 2177 kbps). Він, на жаль, відсутній як тут, так і в 1080р ремуксі (
MakRA 
VIP


З нами з: 11.11.18
Востаннє: 28.09.20
Повідомлень: 1120

2019-12-02 21:59  
sandman написано:
до такої картинки дуже хотілося б хороший оригінальний звук (-HD MA 2177 kbps). Він, на жаль, відсутній як тут, так і в 1080р ремуксі

До речі так. Можливо б І автор ремукса оновив реліз. Заодно і у мкв перезібрав)

Premer_Joker 
Частий відвідувач


З нами з: 22.01.13
Востаннє: 26.09.20
Повідомлень: 45

2019-12-04 20:32  
sandman
MakRA
Витягнув >><< з іншого релізу. Якщо потрібно, то можу перезавантажити торрент.

sandman 
VIP


З нами з: 12.08.12
Востаннє: 28.09.20
Повідомлень: 365

2019-12-05 16:32  
Premer_Joker
ну, власне, рішення про оновлення приймати Вам, як автору релізу. Але така доріжка точно була б доцільна у відеоряді такої якості. При чому, якщо все-таки зважитесь, бажано саме додати , а не замінити (не всі хардверні плеєри нормально з ним дружать, а "з'їдять" точно)

Premer_Joker 
Частий відвідувач


З нами з: 22.01.13
Востаннє: 26.09.20
Повідомлень: 45

2019-12-05 20:55  
sandman
Ну я так і зробив (залишив АС3 и ). Тоді зараз оновлю реліз. А ті хто вже скачав, можуть власноруч додати доріжку.

scolonel 
Новенький


З нами з: 10.02.16
Востаннє: 27.09.20
Повідомлень: 1

2019-12-08 16:25  
На жаль це не 4К, а розтягнутий 1080р. Sad (1)
Premer_Joker 
Частий відвідувач


З нами з: 22.01.13
Востаннє: 26.09.20
Повідомлень: 45

2019-12-10 06:57  
xakep1241 
Частий відвідувач


З нами з: 12.03.19
Востаннє: 20.09.20
Повідомлень: 33

2020-05-30 16:35  
це тільки в мене переклад пропадає?)
MakRA 
VIP


З нами з: 11.11.18
Востаннє: 28.09.20
Повідомлень: 1120

2020-05-30 16:49  
xakep1241 написано:
це тільки в мене переклад пропадає?)

Premer_Joker написано:

Субтитри:
мова: українська (форсовані)

Director's Cut Режисерська версія, є місця без перекладу, на них форсовані субтитри

Ваш часовий пояс: GMT + 2 Години

Нова тема   Відповісти