Тим, хто піде слідом (Вони повзуть за тобою) / Them That Follow (2019) Eng | sub Ukr/Eng

Нові коментарі

Нова тема   Відповісти
Автор Повідомлення
Anonymous 







2019-12-02 12:37  
Тим, хто піде слідом / Them That Follow (2019) Eng | sub Ukr/Eng

Тим, хто піде слідом (Вони повзуть за тобою) / Them That Follow (2019) Eng | sub Ukr/Eng
Оригінальний постер:


Жанр: трилер
Країна: США



Кінокомпанія: Amasia Entertainment, G-BASE
Режисер: Бріттані Поултон/ Britt Poulton, Ден Медісон Севедж / Dan Madison Savage
Актори: Еліс Енглерт / Alice Englert, Олівія Колман / Olivia Colman, Волтон Гоггінс / Walton Goggins, Кейтлін Дівер / Kaitlyn Dever, Джим Ґеффіґан / Jim Gaffigan, Томас Манн / Thomas Mann, Льюїс Пуллман / Lewis Pullman, Бредлі Галло / Bradley Gallo та інші.

Сюжет:
В глибині Аппалачів заборонені відносини змушують дочку пастора протистояти смертельній традиції її громади.
Офіційний трейлер:


Рейтинг MPAA: R - особам до 17 років обов'язкова присутність батьків або дорослого опікуна
Вікова категорія: 16+

Тривалість: 01:37:59
Якість: [Amazon]

Відео:
кодек:
розмір кадру: 720 х 304
бітрейт: 1741 кб/с

Аудіо:
мова: англійська
переклад: оригінал
кодек: 5.1
бітрейт: 384 кб/с

Субтитри # 1:
мова: українська
тип: програмні (м'які)
формат: *.srt
переклад: Володимир Фатун

Субтитри # 2:
мова: англійська
тип: програмні (м'які)
формат: *.srt
Info
Код:
General
Complete name               : Them That Follow (2019) [Hurtom].avi
Format                      : AVI
Format/Info                 : Audio Video Interleave
File size                   : 1.46 GiB
Duration                    : 1 h 37 min
Overall bit rate            : 2 134 kb/s
Movie name                  : Тим, хто піде слідом / Them That Follow (2019) [Eng sub.Ukr,Eng] [Hurtom]
Writing application         : VirtualDubModUkr 1.5.10.2 (build 2542/release)
Writing library             : VirtualDubMod build 2542/release

Video
ID                          : 0
Format                      : MPEG-4 Visual
Format profile              : Advanced [email protected]
Format settings             : BVOP1 / Custom Matrix
Format settings, BVOP       : 1
Format settings, QPel       : No
Format settings, GMC        : No warppoints
Format settings, Matrix     : Custom
Codec ID                    :
Codec ID/Hint               :
Duration                    : 1 h 37 min
Bit rate                    : 1 741 kb/s
Width                       : 720 pixels
Height                      : 304 pixels
Display aspect ratio        : 2.35:1
Frame rate                  : 23.976 (24000/1001) FPS
Color space                 : YUV
Chroma subsampling          : 4:2:0
Bit depth                   : 8 bits
Scan type                   : Progressive
Compression mode            : Lossy
Bits/(Pixel*Frame)          : 0.332
Stream size                 : 1.19 GiB (82%)
Writing library             : 73

Audio
ID                          : 1
Format                      : AC-3
Format/Info                 : Audio Coding 3
Commercial name             : Dolby Digital
Codec ID                    : 2000
Duration                    : 1 h 37 min
Bit rate mode               : Constant
Bit rate                    : 384 kb/s
Channel(s)                  : 6 channels
Channel layout              : L R C LFE Ls Rs
Sampling rate               : 48.0 kHz
Frame rate                  : 31.250 FPS (1536 SPF)
Compression mode            : Lossy
Stream size                 : 269 MiB (18%)
Alignment                   : Split across interleaves
Interleave, duration        : 42  ms (1.00 video frame)
Interleave, preload duratio : 500  ms
Title                       : ENG Original
Service kind                : Complete Main



Джерело: &


 Трекер:    Зареєстрований   

Завантажити / скачати фільм українською



відео для новачків



 Зареєстрований:   2019-12-02 16:42
 Розмір:   1.46 GB 
 Оцінка фільму:   10/10 (Голосів: 4)
 ЗАЛИШАЙТЕСЬ ЯКОМОГА ДОВШЕ НА РОЗДАЧІ! ЗАВАНТАЖИВ САМ - ДАЙ ЗАВАНТАЖИТИ ІНШИМ!
   
Ваш часовий пояс: GMT + 2 Години

Нова тема   Відповісти