Тим, хто піде слідом (Вони повзуть за тобою) / Them That Follow (2019) 1080p Eng | sub Ukr/Eng

Нові коментарі

Нова тема   Відповісти
Останній раз роздавалося coltojkee (2020-08-24)
Автор Повідомлення
Anonymous 







2019-12-02 10:55  
Тим, хто піде слідом / Them That Follow (2019) 1080p Eng | sub Ukr/Eng

Тим, хто піде слідом (Вони повзуть за тобою) / Them That Follow (2019) 1080p Eng | sub Ukr/Eng
Оригінальний постер:


Жанр: трилер
Країна: США



Кінокомпанія: Amasia Entertainment, G-BASE
Режисер: Бріттані Поултон/ Britt Poulton, Ден Медісон Севедж / Dan Madison Savage
Актори: Еліс Енглерт / Alice Englert, Олівія Колман / Olivia Colman, Волтон Гоггінс / Walton Goggins, Кейтлін Дівер / Kaitlyn Dever, Джим Ґеффіґан / Jim Gaffigan, Томас Манн / Thomas Mann, Льюїс Пуллман / Lewis Pullman, Бредлі Галло / Bradley Gallo та інші.

Сюжет:
В глибині Аппалачів заборонені відносини змушують дочку пастора протистояти смертельній традиції її громади.
Офіційний трейлер:


Рейтинг MPAA: R - особам до 17 років обов'язкова присутність батьків або дорослого опікуна
Вікова категорія: 16+

Тривалість: 01:37:59
Якість: 1080p [Amazon]

Відео:
кодек:
розмір кадру: 1920 х 816
бітрейт: 8866 кб/с

Аудіо:
мова: англійська
переклад: оригінал
кодек: 5.1
бітрейт: 448 кб/с

Субтитри # 1:
мова: українська
тип: програмні (м'які)
формат: *.srt
переклад: Володимир Фатун

Субтитри # 2-3:
мова: англійська (повні, SDH)
тип: програмні (м'які)
формат: *.srt
Info
Код:

Complete name               : Them That Follow (2019) [Eng sub.Ukr,Eng] 1080p [Hurtom].
Format                      :
Format version              : Version 4
File size                   : 6.38 GiB
Duration                    : 1 h 38 min
Overall bit rate            : 9 314 kb/s
Movie name                  : Тим, хто піде слідом / Them That Follow (2019) [Eng sub.Ukr,Eng] 1080p [Hurtom]
Encoded date                : UTC 2019-12-02 09:59:35
Writing application         : v40.0.0 ('Old Town Road + Pony') 64-bit
Writing library             : libebml v1.3.9 + v1.5.2
Cover                       : Yes
Attachments                 : cover.jpg

Video
ID                          : 1
Format                      : AVC
Format/Info                 : Advanced Video Codec
Format profile              : [email protected]
Format settings             : CABAC / 4 Ref Frames
Format settings, CABAC      : Yes
Format settings, Reference  : 4 frames
Codec ID                    : V_MPEG4/ISO/AVC
Duration                    : 1 h 37 min
Bit rate mode               : Constant
Bit rate                    : 8 866 kb/s
Nominal bit rate            : 10 000 kb/s
Width                       : 1 920 pixels
Height                      : 816 pixels
Display aspect ratio        : 2.35:1
Frame rate mode             : Constant
Frame rate                  : 23.976 (24000/1001) FPS
Color space                 : YUV
Chroma subsampling          : 4:2:0
Bit depth                   : 8 bits
Scan type                   : Progressive
Bits/(Pixel*Frame)          : 0.236
Stream size                 : 6.07 GiB (95%)
Title                       : Тим, хто піде слідом / Them That Follow (2019) 1080p [Amazon, NTG]
Language                    : English
Default                     : Yes
Forced                      : No
Color range                 : Limited
Color primaries             : BT.709
Transfer characteristics    : BT.709
Matrix coefficients         : BT.709

Audio
ID                          : 2
Format                      : AC-3
Format/Info                 : Audio Coding 3
Commercial name             : Dolby Digital
Codec ID                    : A_AC3
Duration                    : 1 h 37 min
Bit rate mode               : Constant
Bit rate                    : 448 kb/s
Channel(s)                  : 6 channels
Channel layout              : L R C LFE Ls Rs
Sampling rate               : 48.0 kHz
Frame rate                  : 31.250 FPS (1536 SPF)
Compression mode            : Lossy
Stream size                 : 314 MiB (5%)
Title                       : Origianl, 5.1 448 Kbps
Language                    : English
Service kind                : Complete Main
Default                     : Yes
Forced                      : No

Text #1
ID                          : 3
Format                      : UTF-8
Codec ID                    : S_TEXT/UTF8
Codec ID/Info               : UTF-8 Plain Text
Duration                    : 1 h 36 min
Bit rate                    : 46 b/s
Count of elements           : 766
Stream size                 : 32.9 KiB (0%)
Title                       : Ukr Full [iTunes]
Language                    : Ukrainian
Default                     : Yes
Forced                      : Yes

Text #2
ID                          : 4
Format                      : UTF-8
Codec ID                    : S_TEXT/UTF8
Codec ID/Info               : UTF-8 Plain Text
Duration                    : 1 h 30 min
Bit rate                    : 33 b/s
Count of elements           : 753
Stream size                 : 21.8 KiB (0%)
Title                       : Eng Full
Language                    : English
Default                     : No
Forced                      : No

Text #3
ID                          : 5
Format                      : UTF-8
Codec ID                    : S_TEXT/UTF8
Codec ID/Info               : UTF-8 Plain Text
Duration                    : 1 h 32 min
Bit rate                    : 37 b/s
Count of elements           : 959
Stream size                 : 25.2 KiB (0%)
Title                       : Eng SDH
Language                    : English
Default                     : No
Forced                      : No



Джерело: &


 Трекер:    Зареєстрований   

Завантажити / скачати фільм українською



відео для новачків



 Зареєстрований:   2019-12-02 12:27
 Розмір:   6.38 GB 
 Оцінка фільму:   9.8/10 (Голосів: 4)
 ЗАЛИШАЙТЕСЬ ЯКОМОГА ДОВШЕ НА РОЗДАЧІ! ЗАВАНТАЖИВ САМ - ДАЙ ЗАВАНТАЖИТИ ІНШИМ!
   
Ваш часовий пояс: GMT + 2 Години

Нова тема   Відповісти