Ель Каміно: Пуститися берега / El Camino: A Breaking Bad Movie (2019) 1080p Ukr/Eng | Sub Eng

Нові коментарі

Нова тема   Відповісти
Автор Повідомлення
Anonymous 







2019-12-02 08:37  
Ель Каміно: Пуститися берега / El Camino: A Breaking Bad Movie (2019) 1080p Ukr/Eng | Sub Eng

Ель Каміно: Пуститися берега / El Camino: A Breaking Bad Movie (2019) 1080p Ukr/Eng | Sub Eng
Оригінальний постер:

Ель Каміно: Пуститися берега / El Camino: A Breaking Bad Movie (2019) 1080p Ukr/Eng | Sub Eng


Жанр: кримінальний, драма
Країна: США



Кінокомпанія / телеканал: Netflix, Sony Pictures Television, High Bridge Productions
Режисери/творці: Вінс Ґіліґан / Vince Gilligan
Актори: Аарон Пол / Aaron Paul, Джонатан Бенкс / Jonathan Banks, Метт Джонс / Matt Jones, Чарльз Бейкер / Charles Baker, Todd Terry / Тодд Террі, Джессі Племонс / Jesse Plemons, Том Бавер / Tom Bower, Скотт Шеперд / Scott Shepherd, Роберт Форстер / Robert Forster, Кевін Ранкін / Kevin Rankin, Браян Кренстон / Bryan Cranston, Джулі Перл / Julie Pearl та інші.

Сюжет:
Після втечі від Джека та його банди Джессі Пінкмен продовжує тікати від поліції та намагається уникнути власного внутрішнього потрясіння.


На озвучення фільмів та серіалів проходить ЗБІР КОШТІВ

Перекладено та озвучено студією сайту "simpsonsua.tv" на замовлення HURTOM.COM


Тривалість: 02:02:42
Якість: 1080p

Відео:
кодек:
розмір кадру: 1920 x 1080
бітрейт: 11,8 Мб/с

Аудіо # 1:
мова: українська
озвучення: професійне багатоголосе закадрове | simpsonsua
ролі озвучили: Євген Малуха, Роман Чупіс, Олексій Сафін, Влад Ковалевський, Юлія Малахова
кодек: 5.1
бітрейт: 448 кб/с

Аудіо # 2:
мова: англійська
переклад: оригінал
кодек: 5.1
бітрейт: 640 кб/с

Субтитри:
мова: англійська
тип: програмні (м'які)
формат: *.srt
Info
Код:

Complete name               : El Camino. A Breaking Bad Movie (2019) [Ukr,Eng sub.Eng] 1080p [Hurtom].
Format                      :
Format version              : Version 4
File size                   : 11.0 GiB
Duration                    : 2 h 2 min
Overall bit rate            : 12.8 Mb/s
Movie name                  : Ель Каміно: Пуститися берега / El Camino: A Breaking Bad Movie (2019) [Ukr,Eng sub.Eng] 1080p [Hurtom]
Encoded date                : UTC 2019-12-02 07:55:46
Writing application         : v40.0.0 ('Old Town Road + Pony') 64-bit
Writing library             : libebml v1.3.9 + v1.5.2
Cover                       : Yes
Attachments                 : cover.jpg

Video
ID                          : 1
Format                      : AVC
Format/Info                 : Advanced Video Codec
Format profile              : [email protected]
Format settings             : CABAC / 5 Ref Frames
Format settings, CABAC      : Yes
Format settings, Reference  : 5 frames
Codec ID                    : V_MPEG4/ISO/AVC
Duration                    : 2 h 2 min
Bit rate                    : 11.8 Mb/s
Width                       : 1 920 pixels
Height                      : 800 pixels
Display aspect ratio        : 2.40:1
Frame rate mode             : Constant
Frame rate                  : 24.000 FPS
Color space                 : YUV
Chroma subsampling          : 4:2:0
Bit depth                   : 8 bits
Scan type                   : Progressive
Bits/(Pixel*Frame)          : 0.319
Stream size                 : 10.1 GiB (92%)
Title                       : Ель Каміно: Пуститися берега / El Camino: A Breaking Bad Movie (2019) 1080p [NTb]
Writing library             : core 157 r2969 d4099dd
Encoding settings           : cabac=1 / ref=5 / deblock=1:-3:-3 / analyse=0x3:0x133 / me=umh / subme=10 / psy=1 / psy_rd=1.00:0.15 / mixed_ref=1 / me_range=48 / chroma_me=1 / trellis=2 / 8x8dct=1 / cqm=0 / deadzone=21,11 / fast_pskip=0 / chroma_qp_offset=-3 / threads=24 / lookahead_threads=4 / sliced_threads=0 / nr=0 / decimate=0 / interlaced=0 / bluray_compat=0 / constrained_intra=0 / bframes=8 / b_pyramid=2 / b_adapt=2 / b_bias=0 / direct=3 / weightb=1 / open_gop=0 / weightp=2 / keyint=250 / keyint_min=24 / scenecut=40 / intra_refresh=0 / rc=crf / mbtree=0 / crf=17.0 / qcomp=0.60 / qpmin=0 / qpmax=69 / qpstep=4 / ip_ratio=1.30 / pb_ratio=1.20 / aq=3:0.80
Language                    : English
Default                     : Yes
Forced                      : No

Audio #1
ID                          : 2
Format                      : AC-3
Format/Info                 : Audio Coding 3
Commercial name             : Dolby Digital
Codec ID                    : A_AC3
Duration                    : 2 h 2 min
Bit rate mode               : Constant
Bit rate                    : 448 kb/s
Channel(s)                  : 6 channels
Channel layout              : L R C LFE Ls Rs
Sampling rate               : 48.0 kHz
Frame rate                  : 31.250 FPS (1536 SPF)
Compression mode            : Lossy
Stream size                 : 393 MiB (3%)
Title                       : MVO [simpsonsua for Hurtom], 5.1 448 Kbps
Language                    : Ukrainian
Service kind                : Complete Main
Default                     : Yes
Forced                      : No

Audio #2
ID                          : 3
Format                      : AC-3
Format/Info                 : Audio Coding 3
Commercial name             : Dolby Digital
Codec ID                    : A_AC3
Duration                    : 2 h 2 min
Bit rate mode               : Constant
Bit rate                    : 640 kb/s
Channel(s)                  : 6 channels
Channel layout              : L R C LFE Ls Rs
Sampling rate               : 48.0 kHz
Frame rate                  : 31.250 FPS (1536 SPF)
Compression mode            : Lossy
Stream size                 : 562 MiB (5%)
Title                       : Original, AC 3 5.1 640 Kbps
Language                    : English
Service kind                : Complete Main
Default                     : No
Forced                      : No

Text
ID                          : 4
Format                      : UTF-8
Codec ID                    : S_TEXT/UTF8
Codec ID/Info               : UTF-8 Plain Text
Duration                    : 2 h 1 min
Bit rate                    : 51 b/s
Count of elements           : 1544
Stream size                 : 46.2 KiB (0%)
Language                    : English
Default                     : No
Forced                      : No



Джерело: &
Подяка за українізацію постера п.mrgalser


Авторський реліз (завантажувати можна без реєстрації)
 Трекер:    Зареєстрований   

Завантажити / скачати фільм українською



відео для новачків



 Зареєстрований:   2019-12-02 10:13
 Розмір:   11.01 GB 
 Оцінка фільму:   9.6/10 (Голосів: 19)
 ЗАЛИШАЙТЕСЬ ЯКОМОГА ДОВШЕ НА РОЗДАЧІ! ЗАВАНТАЖИВ САМ - ДАЙ ЗАВАНТАЖИТИ ІНШИМ!
   
antik_2008 
Релізер і модератор відео


З нами з: 20.10.08
Востаннє: 13.12.19
Повідомлень: 2815

2019-12-02 13:35  
Постер
Ель Каміно: Пуститися берега / El Camino: A Breaking Bad Movie (2019) 1080p Ukr/Eng | Sub Eng
Подяка за постер : mrgalser

Жока 
Забанено
Забанено


З нами з: 29.11.19
Востаннє: 07.12.19
Повідомлень: 36

2019-12-02 18:20  
Нормуль кінце
oster_ok 
Відео Гуртом - підтримка та поширення
Відео Гуртом - підтримка та поширення


З нами з: 20.11.11
Востаннє: 14.12.19
Повідомлень: 154

2019-12-02 23:35  
фільм і озвучення дуже хороші!
Дякую за озвучення

T-Mon 
Свій


З нами з: 30.07.10
Востаннє: 13.12.19
Повідомлень: 93

2019-12-04 10:47  
А як на мене фільм висмоктали із пальця, сценарій так собі. І не дуже зрозуміла назва, бо авто там жодної ролі не грає і з середини зовсім зникає з поля зору глядача.
Жока 
Забанено
Забанено


З нами з: 29.11.19
Востаннє: 07.12.19
Повідомлень: 36

2019-12-04 12:36  
T-Mon написано:
бо авто там жодної ролі не грає


назва авто грає - шлях

kryk-v.ya. 
Попереджень: 1
Попереджень: 1 


З нами з: 14.02.14
Востаннє: 13.12.19
Повідомлень: 1705

2019-12-05 18:54  
дякую за реліз...таке питання напевно до команди озвучення, а саби наші де? я так розумію ну раз робився переклад то і текст є...було б дуже добре якби нові команди додавали саби...поясню чому...у нас масса народу з обмеженням слуху...і субтитри для них єдиний вхід у світ кіно, а наш трекер це-клондайк...не все так просто, і коли просим додавати саби то не просто так просим.
Dark Invader 
Модератор відео


З нами з: 06.01.11
Востаннє: 14.12.19
Повідомлень: 2795

2019-12-05 20:16  
kryk-v.ya. написано:
таке питання напевно до команди озвучення, а саби наші де? я так розумію ну раз робився переклад то і текст є.

Текст для озвучення набирається зовсім по-іншому. А для того, щоб зробити їх у вигляді субтитрів, треба весь текст передруковувати заново. Наскільки пам"ятаю раніше студії для цього наймали окремих людей і відповідно за додаткову плату.

Зараз цього вже не роблять.

RudiUA 
Новенький


З нами з: 02.04.13
Востаннє: 13.12.19
Повідомлень: 18

2019-12-06 16:09  
Шлак! Назва не відповідна, бо автомобіль не має жодного відношення до фільму
Ваш часовий пояс: GMT + 2 Години

Нова тема   Відповісти