Ель Каміно: Пуститися берега / El Camino: A Breaking Bad Movie (2019) 720p Ukr/Eng | Sub Eng

Нові коментарі

Нова тема   Відповісти
Автор Повідомлення
Anonymous 







2019-12-02 07:02  
Ель Каміно: Пуститися берега / El Camino: A Breaking Bad Movie (2019) 720p Ukr/Eng | Sub Eng

Ель Каміно: Пуститися берега / El Camino: A Breaking Bad Movie (2019) 720p Ukr/Eng | Sub Eng


Подяка за постер : mrgalser


Жанр: кримінальний, драма
Країна: США



Кінокомпанія / телеканал: Netflix, Sony Pictures Television, High Bridge Productions
Режисери/творці: Вінс Ґіліґан
Актори: Аарон Пол, Джонатан Бенкс, Matt Jones, Чарльз Бейкер, Todd Terry, Джулі Перл та інші.

Сюжет:
Після втечі від Джека та його банди Джессі Пінкмен продовжує тікати від поліції та намагається уникнути власного внутрішнього потрясіння.


Перекладено та озвучено студією сайту "simpsonsua.tv" на замовлення HURTOM.COM


Тривалість: 02:02:42

Якість: 720p
Відео:
кодек:
розмір кадру: 1280 x 534
бітрейт: 5191 кб/с

Аудіо # 1:
мова: українська
озвучення: професійне багатоголосе закадрове | "simpsonsua.tv"
кодек: 5.1
бітрейт: 448 кб/с

Аудіо # 2:
мова: англійська
переклад: оригінал
кодек: 5.1
бітрейт: 640 кб/с

Субтитри (Full, SDH, SDH-Colored):
мова: англійська
тип: програмні (м'які)
формат: *.srt
Info
Код:
General
Complete name                            : El Camino A Breaking Bad Movie (2019) 720p [UKR_ENG] [ViDeO_Hurtom].
Format                                   :
Format version                           : Version 4
File size                                : 5.53 GiB
Duration                                 : 2 h 2 min
Overall bit rate                         : 6 454 kb/s
Encoded date                             : UTC 2019-12-02 04:45:38
Writing application                      : v30.1.0 ('Forever And More') 64-bit
Writing library                          : libebml v1.3.6 + v1.4.9
Cover                                    : Yes
Attachments                              : cover.jpg

Video
ID                                       : 1
Format                                   : AVC
Format/Info                              : Advanced Video Codec
Format profile                           : [email protected]
Format settings                          : CABAC / 12 Ref Frames
Format settings, CABAC                   : Yes
Format settings, RefFrames               : 12 frames
Codec ID                                 : V_MPEG4/ISO/AVC
Duration                                 : 2 h 2 min
Bit rate                                 : 5 364 kb/s
Width                                    : 1 280 pixels
Height                                   : 534 pixels
Display aspect ratio                     : 2.40:1
Frame rate mode                          : Constant
Frame rate                               : 24.000 FPS
Color space                              : YUV
Chroma subsampling                       : 4:2:0
Bit depth                                : 8 bits
Scan type                                : Progressive
Bits/(Pixel*Frame)                       : 0.327
Stream size                              : 4.60 GiB (83%)
Title                                    : [El_Camino_A_Breaking_Bad_Movie_2019_All Films_Rutracker.org_by Dalemake]
Writing library                          : core 158 r2984+47 456d10a t_mod_New [[email protected] X86_64]
Encoding settings                        : cabac=1 / ref=12 / deblock=1:-3:-3 / analyse=0x3:0x133 / me=umh / subme=10 / psy=1 / fade_compensate=0.00 / psy_rd=1.00:0.15 / mixed_ref=1 / me_range=48 / chroma_me=1 / trellis=2 / 8x8dct=1 / cqm=0 / deadzone=21,11 / fast_pskip=0 / chroma_qp_offset=-3 / threads=12 / lookahead_threads=2 / sliced_threads=0 / nr=0 / decimate=0 / interlaced=0 / bluray_compat=0 / constrained_intra=0 / fgo=0 / bframes=8 / b_pyramid=2 / b_adapt=2 / b_bias=0 / direct=3 / weightb=1 / open_gop=0 / weightp=2 / keyint=250 / keyint_min=24 / scenecut=40 / intra_refresh=0 / rc=crf / mbtree=0 / crf=16.0000 / qcomp=0.60 / qpmin=0:0:0 / qpmax=69:69:69 / qpstep=4 / ip_ratio=1.30 / pb_ratio=1.20 / aq=3:0.80 / aq-sensitivity=10.00 / aq-factor=1.00:1.00:1.00 / aq2=0 / aq3=0
Language                                 : English
Default                                  : Yes
Forced                                   : No

Audio #1
ID                                       : 2
Format                                   : AC-3
Format/Info                              : Audio Coding 3
Commercial name                          : Dolby Digital
Codec ID                                 : A_AC3
Duration                                 : 2 h 2 min
Bit rate mode                            : Constant
Bit rate                                 : 448 kb/s
Channel(s)                               : 6 channels
Channel layout                           : L R C LFE Ls Rs
Sampling rate                            : 48.0 kHz
Frame rate                               : 31.250 FPS (1536 SPF)
Bit depth                                : 16 bits
Compression mode                         : Lossy
Stream size                              : 393 MiB (7%)
Title                                    : , 6 ch, 448 Кбт/с
Language                                 : Ukrainian
Service kind                             : Complete Main
Default                                  : Yes
Forced                                   : No

Audio #2
ID                                       : 3
Format                                   : AC-3
Format/Info                              : Audio Coding 3
Commercial name                          : Dolby Digital
Codec ID                                 : A_AC3
Duration                                 : 2 h 2 min
Bit rate mode                            : Constant
Bit rate                                 : 640 kb/s
Channel(s)                               : 6 channels
Channel layout                           : L R C LFE Ls Rs
Sampling rate                            : 48.0 kHz
Frame rate                               : 31.250 FPS (1536 SPF)
Bit depth                                : 16 bits
Compression mode                         : Lossy
Stream size                              : 562 MiB (10%)
Title                                    : , 6 ch, 640 Кбт/с
Language                                 : English
Service kind                             : Complete Main
Default                                  : No
Forced                                   : No

Text #1
ID                                       : 4
Format                                   : UTF-8
Codec ID                                 : S_TEXT/UTF8
Codec ID/Info                            : UTF-8 Plain Text
Duration                                 : 2 h 1 min
Bit rate                                 : 51 b/s
Count of elements                        : 1544
Stream size                              : 46.2 KiB (0%)
Title                                    : Full
Language                                 : English
Default                                  : No
Forced                                   : No

Text #2
ID                                       : 5
Format                                   : UTF-8
Codec ID                                 : S_TEXT/UTF8
Codec ID/Info                            : UTF-8 Plain Text
Duration                                 : 2 h 1 min
Bit rate                                 : 50 b/s
Count of elements                        : 1544
Stream size                              : 45.3 KiB (0%)
Title                                    : SDH
Language                                 : English
Default                                  : No
Forced                                   : No

Text #3
ID                                       : 6
Format                                   : UTF-8
Codec ID                                 : S_TEXT/UTF8
Codec ID/Info                            : UTF-8 Plain Text
Duration                                 : 2 h 1 min
Bit rate                                 : 71 b/s
Count of elements                        : 1543
Stream size                              : 63.8 KiB (0%)
Title                                    : SDH - Colored
Language                                 : English
Default                                  : No
Forced                                   : No
Скріншоти





Озвучено студією сайту:
Ролі озвучили: Євген Малуха, Роман Чупіс, Олексій Сафін, Влад Ковалевський, Юлія Малахова.
Джерело:
Особиста оцінка: 0 - не дивився


Авторський реліз (завантажувати можна без реєстрації)
 Трекер:    Зареєстрований   

Завантажити / скачати фільм українською



відео для новачків



 Зареєстрований:   2019-12-02 07:02
 Розмір:   5.53 GB 
 Оцінка фільму:   8.7/10 (Голосів: 20)
   
myru22 
Свій


З нами з: 27.11.16
Востаннє: 13.12.19
Повідомлень: 67

2019-12-03 00:13  
буде?
Anonymous 







2019-12-04 04:04  
myru22 написано:
буде?

ні

RudiUA 
Новенький


З нами з: 02.04.13
Востаннє: 13.12.19
Повідомлень: 18

2019-12-06 16:09  
Шлак! Назва не відповідна, бо автомобіль не має жодного відношення до фільму.
myru22 
Свій


З нами з: 27.11.16
Востаннє: 13.12.19
Повідомлень: 67

2019-12-06 17:37  
RudiUA
Ель Каміно автомобіль на якому Джессі Пінкман в останньому епізоді Breaking Bad поїхав від Уолтера Уайта до того, як приїхали копи. І ніде не говорилось, що це кіно про машину.

slavkam 
Новенький


З нами з: 14.03.15
Востаннє: 13.12.19
Повідомлень: 1

2019-12-08 11:21  
Не часто пишу,але не втримався. Як на мою думку- це жах! Кіно без початку і кінця. Гра акторів нікудишня. Робота кінооператора-взагалі окрема тема. З логікою в діях головного героя величезні проблеми. Реальний рейтинг 4-4,5 (ну звичайно,це моя суб'єктивна думка).
Nickolassssssss 
Поважний учасник


З нами з: 31.05.14
Востаннє: 14.12.19
Повідомлень: 190

2019-12-08 15:03  
slavkam
І початок і кінець є, якщо дивитись серіал.

Ваш часовий пояс: GMT + 2 Години

Нова тема   Відповісти