Ель Каміно: Пуститися берега / El Camino: A Breaking Bad Movie (2019) 1080p H.265 Ukr/Eng

Нові коментарі

Нова тема   Відповісти
Автор Повідомлення
simpsonsua 
Поважний учасник


З нами з: 13.03.18
Востаннє: 14.12.19
Повідомлень: 188

2019-12-01 21:44  
Ель Каміно: Пуститися берега / El Camino: A Breaking Bad Movie (2019) 1080p H.265 Ukr/Eng

Ель Каміно: Пуститися берега / El Camino: A Breaking Bad Movie (2019) 1080p H.265 Ukr/Eng

Подяка за постер: mrgalser


Жанр: кримінальний, драма
Країна: США



Кінокомпанія / телеканал: Netflix, Sony Pictures Television, High Bridge Productions
Режисери/творці: Вінс Ґіліґан
Актори: Аарон Пол, Джонатан Бенкс, Метт Джонс, Чарльз Бейкер, Тодд Террі, Джулі Перл та інші.

Сюжет:
Після втечі від Джека та його банди Джессі Пінкмен продовжує тікати від поліції та намагається уникнути власного внутрішнього потрясіння.


На озвучення фільмів та серіалів проходить ЗБІР КОШТІВ

Перекладено та озвучено студією сайту "simpsonsua.tv" на замовлення HURTOM.COM


Тривалість: 02:02:42

Якість: 1080p
Відео:
кодек: H.265 (HEVC)
розмір кадру: 1920 x 1080
бітрейт: 5442 кб/с
бітова глибина: 10 біт
Увага! Перед завантаженням переконайтесь, що ваш пристрій відтворення (та/або ПЗ) підтримує H.265 (HEVC)

Аудіо # 1:
мова: українська
озвучення: професійне багатоголосе закадрове |
ролі озвучили: Євген Малуха, Роман Чупіс, Олексій Сафін, Влад Ковалевський, Юлія Малахова.
кодек: 5.1
бітрейт: 448 кб/с

Аудіо # 2:
мова: англійська
переклад: оригінал
кодек: E- 5.1
бітрейт: 768 кб/с
Info
Код:
Format                      :
Format version              : Version 4
File size                   : 5.71 GiB
Duration                    : 2 h 2 min
Overall bit rate            : 6 660 kb/s
Encoded date                : UTC 2019-12-01 20:31:08
Writing application         : v6.8.0 ('Theme for Great Cities') 32bit built on Mar  2 2014 21:27:07
Writing library             : libebml v1.3.0 + v1.4.1

Video
ID                          : 1
Format                      : HEVC
Format/Info                 : High Efficiency Video Coding
Format profile              : Main [email protected]@Main
Codec ID                    : V_MPEGH/ISO/HEVC
Duration                    : 2 h 2 min
Bit rate                    : 5 311 kb/s
Width                       : 1 920 pixels
Height                      : 1 080 pixels
Display aspect ratio        : 16:9
Frame rate mode             : Constant
Frame rate                  : 24.000 FPS
Color space                 : YUV
Chroma subsampling          : 4:2:0
Bit depth                   : 10 bits
Bits/(Pixel*Frame)          : 0.107
Stream size                 : 4.55 GiB (80%)
Default                     : Yes
Forced                      : No
Color range                 : Limited
Color primaries             : BT.709
Transfer characteristics    : BT.709
Matrix coefficients         : BT.709

Audio #1
ID                          : 2
Format                      : AC-3
Format/Info                 : Audio Coding 3
Commercial name             : Dolby Digital
Codec ID                    : A_AC3
Duration                    : 2 h 2 min
Bit rate mode               : Constant
Bit rate                    : 448 kb/s
Channel(s)                  : 6 channels
Channel layout              : L R C LFE Ls Rs
Sampling rate               : 48.0 kHz
Frame rate                  : 31.250 FPS (1536 SPF)
Bit depth                   : 16 bits
Compression mode            : Lossy
Stream size                 : 393 MiB (7%)
Title                       : Українська
Language                    : Ukrainian
Service kind                : Complete Main
Default                     : Yes
Forced                      : No

Audio #2
ID                          : 3
Format                      : E-AC-3 JOC
Format/Info                 : Enhanced AC-3 with Joint Object Coding
Commercial name             : Dolby Digital Plus with Dolby Atmos
Codec ID                    : A_EAC3
Duration                    : 2 h 2 min
Bit rate mode               : Constant
Bit rate                    : 768 kb/s
Channel(s)                  : 6 channels
Channel layout              : L R C LFE Ls Rs
Sampling rate               : 48.0 kHz
Frame rate                  : 31.250 FPS (1536 SPF)
Compression mode            : Lossy
Stream size                 : 674 MiB (12%)
Title                       : English
Language                    : English
Service kind                : Complete Main
Default                     : No
Forced                      : No
Complexity index            : 16
Number of dynamic objects   : 15
Bed channel count           : 1 channel
Bed channel configuration   : LFE
Скріншоти



Джерело:


Авторський реліз (завантажувати можна без реєстрації)
 Трекер:    Зареєстрований   

Завантажити / скачати фільм українською



відео для новачків



 Зареєстрований:   2019-12-01 22:46
 Розмір:   5.71 GB 
 Оцінка фільму:   9.3/10 (Голосів: 24)
   
HURTOMAN 
Новенький


З нами з: 28.08.19
Востаннє: 02.12.19
Повідомлень: 1

2019-12-01 21:53  
Дуже чекаю!!! Дякую Вам
bot 
робот


З нами з: 30.09.07
Востаннє: 26.05.05
Повідомлень: 22647

2019-12-01 22:45  
Тему перенесено з Анонси релізів до форуму Фільми


simpsonsua

simpsonsua 
Поважний учасник


З нами з: 13.03.18
Востаннє: 14.12.19
Повідомлень: 188

2019-12-01 22:52  
Озвучили фільм українською мовою. Бажаємо всім приємного перегляду!


Увага!!! Не забуваємо про збір коштів, адже надалі ми не зможемо озвучувати фільми та серіали вчасно та без затримок. Не через те, що ми не хочемо так робити, просто ніхто не буде скидатися, коли вже є переклад та озвучення. Цей фільм ми почали озвучувати за кошти simpsonsua.tv.

Детальніше про збір тут: https://www.hurtom.com/portal/series

us1om41k 
Новенький


З нами з: 26.10.17
Востаннє: 06.12.19
Повідомлень: 18

2019-12-01 23:18  
Обов'язково українською перегляну, бо "вєлікадєржавная фєня" на Нетфлікс усе задоволення від перегляду спаплюжила
Форкуш 
VIP


З нами з: 03.02.10
Востаннє: 14.12.19
Повідомлень: 2543

2019-12-01 23:23  
Посилання на ІМДБ невірне.
simpsonsua 
Поважний учасник


З нами з: 13.03.18
Востаннє: 14.12.19
Повідомлень: 188

2019-12-01 23:26  
Форкуш
Виправили.

AVC теж буде!

Петров Микола 
VIP


З нами з: 15.08.14
Востаннє: 13.12.19
Повідомлень: 637

2019-12-01 23:33  
Дякую за озвучення)
П.С. Помилились розділом це треба у фільми в HD

simpsonsua 
Поважний учасник


З нами з: 13.03.18
Востаннє: 14.12.19
Повідомлень: 188

2019-12-01 23:34  
Петров Микола
Якраз зайшли це змінити!))

bot 
робот


З нами з: 30.09.07
Востаннє: 26.05.05
Повідомлень: 22647

2019-12-01 23:34  
Тему перенесено з Фільми до форуму Фільми в HD


simpsonsua

informal 
Новенький


З нами з: 05.01.16
Востаннє: 08.12.19
Повідомлень: 2

2019-12-02 00:12  
Скажіть, будь ласка, а на новий фільм Скорсезе гроші збиратимуть?
Electroz 
Відео Гуртом - підтримка та поширення
Відео Гуртом - підтримка та поширення


З нами з: 18.09.14
Востаннє: 14.12.19
Повідомлень: 3664

2019-12-02 00:31  
informal написано:
на новий фільм Скорсезе гроші збиратимуть?

https://toloka.to/t105828

d1monster 
Свій


З нами з: 05.12.09
Востаннє: 13.12.19
Повідомлень: 94

2019-12-02 13:01  
Згадати б іще чим серіал закінчився Wide grin
antik_2008 
Релізер і модератор відео


З нами з: 20.10.08
Востаннє: 13.12.19
Повідомлень: 2815

2019-12-02 13:36  
Постер
Ель Каміно: Пуститися берега / El Camino: A Breaking Bad Movie (2019) 1080p H.265 Ukr/Eng
Подяка за постер : mrgalser

simpsonsua 
Поважний учасник


З нами з: 13.03.18
Востаннє: 14.12.19
Повідомлень: 188

2019-12-02 18:06  
antik_2008
Крутяк! Спасибі https://toloka.to/u975907

bandera21 
Свій


З нами з: 10.11.12
Востаннє: 14.12.19
Повідомлень: 88

2019-12-07 18:54  
За перклад величезне спасибі! а от фільм просто туро не розуміти про що!? якась повна маячня!
pintg 
Поважний учасник


З нами з: 14.04.16
Востаннє: 13.12.19
Повідомлень: 151

2019-12-07 19:05  
Мені подобається художній засіб, коли під час перегляду збирається пазл подій, що відбуваються/відбулися... але пазли закінчилися, пішли титри... а картинка так і не склалася. Sad (1)
sirkon10 
Частий відвідувач


З нами з: 13.05.12
Востаннє: 10.12.19
Повідомлень: 35

2019-12-07 23:50  
bandera21
Якщо не дивилися серіал Breaking Bad, то перегляд фільму безглуздий. А цей сераіл взагалі є обов'язковим до перегляду Wink (1)

Highlander 
Новенький


З нами з: 22.12.09
Востаннє: 11.12.19
Повідомлень: 6

2019-12-10 22:01  
Клас. Якраз того бракувало до завершення серіалу.
Ваш часовий пояс: GMT + 2 Години

Нова тема   Відповісти