Формула 1. Сезон 2019. Етап 21. Гран-Прі Абу-Дабі. Гонка (01.12.2019) 720p 60fps 2xUkr/Eng

Нові коментарі

Нова тема   Відповісти
Автор Повідомлення
sergiyko.5 
VIP


З нами з: 25.02.16
Востаннє: 20.10.20
Повідомлень: 3578

2019-12-01 19:20  
Формула 1. Сезон 2019. Етап 21. Гран-Прі Абу-Дабі. Гонка (01.12.2019) 720p 60fps


Формула 1. Сезон 2019. Етап 21. Гран-Прі Абу-Дабі. Гонка (01.12.2019) 720p 60fps 2xUkr/Eng

Жанр: Перегони Формули 1
Країна: Абу-Дабі
Телеканал: Sky Sports F1
Коментатор: Максим Подзігун, Роман Гончаров, Sky Sports F1

Опис:
Заключна гонка сезону 2019 року 21 етап Гран-Прі Абу-Дабі.


Якість:

Відео: кодек: розмір кадру: 1280 х 720 бітрейт: 5500 кб/с
Аудіо 1: мова: українська кодек: 2.0 бітрейт: 192 кб/с
Аудіо 2: мова: українська кодек: 5.1 бітрейт: 192 кб/с
Аудіо 3: мова: англійська кодек: 2.0 бітрейт: 128 кб/с
Тривалість:
02:05:00
Про файл:
General
Unique ID : 176559799039747380833972353027363749058 (0x84D42E2E5691B4B8A36824D73D2EBCC2)
Complete name : D:\Documents\Torrents\SPORT\F1.2019.21.Abu.Dhabi.Race..720p.Ukr.Eng.
Format :
Format version : Version 4
File size : 5.14 GiB
Duration : 2 h 5 min
Overall bit rate mode : Variable
Overall bit rate : 5 885 kb/s
Movie name : rip by sergiyko
Encoded date : UTC 2019-12-01 18:07:39
Writing application : v40.0.0 ('Old Town Road + Pony') 64-bit
Writing library : libebml v1.3.9 + v1.5.2

Video
ID : 1
Format : AVC
Format/Info : Advanced Video Codec
Format profile : [email protected]
Format settings : CABAC / 4 Ref Frames
Format settings, CABAC : Yes
Format settings, Reference : 4 frames
Codec ID : V_MPEG4/ISO/AVC
Duration : 2 h 5 min
Bit rate mode : Variable
Bit rate : 5 402 kb/s
Maximum bit rate : 8 000 kb/s
Width : 1 280 pixels
Height : 720 pixels
Display aspect ratio : 16:9
Frame rate mode : Constant
Frame rate : 59.940 (60000/1001) FPS
Standard : Component
Color space : YUV
Chroma subsampling : 4:2:0
Bit depth : 8 bits
Scan type : Progressive
Bits/(Pixel*Frame) : 0.098
Stream size : 4.72 GiB (92%)
Language : English
Default : Yes
Forced : No
Color range : Limited
Color primaries : BT.709
Transfer characteristics : BT.709
Matrix coefficients : BT.709

Audio #1
ID : 2
Format : AC-3
Format/Info : Audio Coding 3
Commercial name : Dolby Digital
Codec ID : A_AC3
Duration : 2 h 5 min
Bit rate mode : Constant
Bit rate : 192 kb/s
Channel(s) : 2 channels
Channel layout : L R
Sampling rate : 48.0 kHz
Frame rate : 31.250 FPS (1536 SPF)
Compression mode : Lossy
Delay relative to video : 30 ms
Stream size : 172 MiB (3%)
Title : Максим Подзігун
Language : Ukrainian
Service kind : Complete Main
Default : Yes
Forced : No

Audio #2
ID : 3
Format : AC-3
Format/Info : Audio Coding 3
Commercial name : Dolby Digital
Codec ID : A_AC3
Duration : 2 h 5 min
Bit rate mode : Constant
Bit rate : 192 kb/s
Channel(s) : 2 channels
Channel layout : L R
Sampling rate : 48.0 kHz
Frame rate : 31.250 FPS (1536 SPF)
Compression mode : Lossy
Delay relative to video : 30 ms
Stream size : 172 MiB (3%)
Title : Роман Гончаров
Language : Ukrainian
Service kind : Complete Main
Default : No
Forced : No

Audio #3
ID : 4
Format : LC SBR
Format/Info : Advanced Audio Codec Low Complexity with Spectral Band Replication
Commercial name : HE-
Format settings : Implicit
Codec ID : A_AAC-2
Duration : 2 h 5 min
Bit rate : 96.0 kb/s
Channel(s) : 2 channels
Channel layout : L R
Sampling rate : 48.0 kHz
Frame rate : 23.438 FPS (2048 SPF)
Compression mode : Lossy
Delay relative to video : 16 ms
Stream size : 84.7 MiB (2%)
Title : Sky Sports F1
Language : English
Default : No
Forced : No
Скріншоти:


Зведення: sergiyko


Золотий реліз (завантажене не впливає на рейтинг)
 Трекер:    Зареєстрований   

Завантажити / скачати торрент



відео для новачків



 Зареєстрований:   2019-12-01 21:12
 Розмір:   5.14 GB 
 Оцінка:   10/10 (Голосів: 23)
   
Твейн 
Новенький


З нами з: 21.02.14
Востаннє: 19.10.20
Повідомлень: 14

2019-12-01 19:47  
Чекаю! =) Дякую! =)
armogun 
Попереджень: 1
Попереджень: 1 


З нами з: 04.05.13
Востаннє: 17.10.20
Повідомлень: 699

2019-12-01 19:51  
хто там, шо там ?
p.v.r 
Новенький


З нами з: 10.04.17
Востаннє: 11.10.20
Повідомлень: 1

2019-12-01 20:29  
Скільки чекати?
sergiyko.5 
VIP


З нами з: 25.02.16
Востаннє: 20.10.20
Повідомлень: 3578

2019-12-01 21:21  
Вітаю з закінченням сезону! Всім добра, Подзігуну мізків!
armogun 
Попереджень: 1
Попереджень: 1 


З нами з: 04.05.13
Востаннє: 17.10.20
Повідомлень: 699

2019-12-01 21:46  
sergiyko.5 написано:
Вітаю з закінченням сезону! Всім добра, Подзігуну мізків!

ой та хто його слухає, всі вмикають оригінальну доріжку, коли стрім в оригіналі подивитися не виходить

powst 
Новенький


З нами з: 13.10.19
Востаннє: 02.12.19
Повідомлень: 2

2019-12-02 03:10  
Супер, дякую за англійську, бо іноді від Подзігуна починає нудити.
Ваш часовий пояс: GMT + 2 Години

Нова тема   Відповісти