Однохвилинна машина часу / One-Minute Time Machine (2014) 720р Ukr/Eng

Нові коментарі

Нова тема   Відповісти
Автор Повідомлення
Gwean 
Відео Гуртом - фільмокрай
Відео Гуртом - фільмокрай


З нами з: 28.07.12
Востаннє: 24.01.21
Повідомлень: 946

2019-12-01 15:05  
Однохвилинна машина часу / One-Minute Time Machine (2014) 720р Ukr/Eng

Однохвилинна машина часу / One-Minute Time Machine (2014) 720р Ukr/Eng


Жанр: фантастика, мелодрама, комедія
Країна: Великобританія, США

Режисер: Девона Ейвері
Актори: Браян Дітцен, Ерінн Хейс

Сюжет:
Джеймсу кортить застосувати свою однохвилинну машину часу, щоб завоювати серце Регіни. І раптом він дізнається про неочікувані наслідки своїх дій.


Тривалість: 00:05:40
Якість:
Відео:
кодек:
розмір кадру: 1280 х 720
бітрейт: 2375 кб/с

Аудіо # 1:
мова: українська
переклад: двоголосий закадровий
кодек: 2.0
бітрейт: 160 кб/с

Аудіо # 2:
мова: англійська
переклад: оригінал
кодек: 2.0
бітрейт: 160 кб/с
Info

General
Unique ID : 187071277144258910841203104844507019097 (0x8CBC9E1076414AA5AB070501F3447759)
Complete name : R:\Short\One-Minute Time Machine ( 720 ).
Format :
Format version : Version 4
File size : 109 MiB
Duration : 5 min 41 s
Overall bit rate : 2 692 kb/s
Encoded date : UTC 2019-12-01 13:01:47
Writing application : v7.0.0 ('Where We Going') 32bit built on Jun 9 2014 15:08:34
Writing library : libebml v1.3.0 + v1.4.1
Cover : Yes
Attachments : cover.jpg

Video
ID : 1
Format : AVC
Format/Info : Advanced Video Codec
Format profile : [email protected]
Format settings : CABAC / 4 Ref Frames
Format settings, CABAC : Yes
Format settings, Reference : 4 frames
Codec ID : V_MPEG4/ISO/AVC
Duration : 5 min 40 s
Bit rate : 2 375 kb/s
Width : 1 280 pixels
Height : 720 pixels
Display aspect ratio : 16:9
Frame rate mode : Constant
Frame rate : 23.976 (24000/1001) FPS
Color space : YUV
Chroma subsampling : 4:2:0
Bit depth : 8 bits
Scan type : Progressive
Bits/(Pixel*Frame) : 0.107
Stream size : 96.3 MiB (88%)
Writing library : core 140 r2377 1ca7bb9
Encoding settings : cabac=1 / ref=3 / deblock=1:0:0 / analyse=0x3:0x113 / me=hex / subme=7 / psy=1 / psy_rd=1.00:0.00 / mixed_ref=1 / me_range=16 / chroma_me=1 / trellis=1 / 8x8dct=1 / cqm=0 / deadzone=21,11 / fast_pskip=1 / chroma_qp_offset=-2 / threads=12 / lookahead_threads=2 / sliced_threads=0 / nr=0 / decimate=1 / interlaced=0 / bluray_compat=0 / stitchable=1 / constrained_intra=0 / bframes=3 / b_pyramid=2 / b_adapt=1 / b_bias=0 / direct=1 / weightb=1 / open_gop=0 / weightp=2 / keyint=72 / keyint_min=24 / scenecut=40 / intra_refresh=0 / rc_lookahead=40 / rc=crf / mbtree=1 / crf=20.0 / qcomp=0.60 / qpmin=5 / qpmax=69 / qpstep=4 / vbv_maxrate=3750 / vbv_bufsize=12500 / crf_max=0.0 / nal_hrd=none / filler=0 / ip_ratio=1.40 / aq=1:1.00
Language : English
Default : Yes
Forced : Yes
Color range : Limited
Color primaries : BT.709
Transfer characteristics : BT.709
Matrix coefficients : BT.709

Audio #1
ID : 2
Format : LC
Format/Info : Advanced Audio Codec Low Complexity
Codec ID : A_AAC-2
Duration : 5 min 41 s
Bit rate : 160 kb/s
Channel(s) : 2 channels
Channel layout : L R
Sampling rate : 48.0 kHz
Frame rate : 46.875 FPS (1024 SPF)
Compression mode : Lossy
Stream size : 6.51 MiB (6%)
Title : DVO від Gwean & Maslinka
Language : Ukrainian
Default : Yes
Forced : Yes

Audio #2
ID : 3
Format : LC
Format/Info : Advanced Audio Codec Low Complexity
Codec ID : A_AAC-2
Duration : 5 min 40 s
Bit rate : 160 kb/s
Channel(s) : 2 channels
Channel layout : L R
Sampling rate : 48.0 kHz
Frame rate : 46.875 FPS (1024 SPF)
Compression mode : Lossy
Stream size : 6.49 MiB (6%)
Title : оригінальна доріжка
Language : English
Default : No
Forced : No
Скріншоти




Джерело: Gwean & Maslinka
Особиста оцінка: 8 - мені сподобалося


Авторський реліз (завантажувати можна без реєстрації)
 Трекер:    Зареєстрований   

Завантажити / скачати фільм українською



відео для новачків



 Зареєстрований:   2019-12-01 15:05
 Розмір:   109 MB 
 Оцінка фільму:   9.7/10 (Голосів: 6)
   
11FrYkT 
Модератор відео


З нами з: 20.02.11
Востаннє: 24.01.21
Повідомлень: 7120

2020-02-23 10:00  
Gwean , додайте звіт медіаінфо, вкажіть джерело озвучення
Ваш часовий пояс: GMT + 2 Години

Нова тема   Відповісти