Солдатики / Small Soldiers (1998) AVC Ukr/Eng | sub Eng

Нові коментарі

Нова тема   Відповісти
Автор Повідомлення
Arsenfpu 
Відео Гуртом - фільмокрай
Відео Гуртом - фільмокрай


З нами з: 30.04.09
Востаннє: 10.12.19
Повідомлень: 6293

2019-12-01 11:02  
Солдатики / Small Soldiers (1998) AVC Ukr/Eng | sub Eng

Солдатики / Small Soldiers (1998) AVC Ukr/Eng | sub Eng


Жанр: екшн, пригодницький, комедія
Країна: США



Кінокомпанія: Universal Pictures, DreamWorks SKG
Режисер: Джо Данте
Актори: Грегорі Сміт, Девід Кросс, Джей Мор, Деніс Лірі, Кевін Данн, Кірстен Данст, Томмі Лі Джонс (озвучення Чіпа Хазарда), Френк Ланжелла (озвучення Арчера), Сара Мішель Геллар (озвучення ляльки), Крістіна Річчі (озвучення іншої ляльки)

Сюжет:
Корпорація «Глоботек» задіяла у виробництві іграшок військові технології, один з розробників вставив в нову серію солдатиків надсучасні мікропроцесори. В результаті в магазин надійшли агресивні десантники, запрограмовані знищувати фантастичних істот - горгонітів. Першим з ними зіткнувся син власника маленького магазина іграшок, що прийняв сторону горгонітів. Десантники, спочатку не чіпали "цивільних осіб" та невдовзі перейшли на зовсім неіграшкові бойові дії і проти людей. Хлопчикові, сусідській дівчинці, а потім і їх батькам довелося оборонятися. До них приєдналися і горе-розробники, зрозумівши, що вони наробили. Навіть миролюбиві горгоніти, запрограмовані на те, щоб ховатися, не витримали і приєдналися до бою.


Тривалість: 01:49:47
Якість:
Відео:
кодек:
розмір кадру: 1 024 х 436
бітрейт: 2 099 кб/с

Аудіо # 1:
мова: українська
переклад: двоголосий закадровий (з 5.1)
кодек: 2.0
бітрейт: 192 кб/с

Аудіо # 2:
мова: англійська
переклад: оригінал
кодек: 2.0
бітрейт: 192 кб/с

Субтитри:
мова: англійська
тип: програмні (м'які)
формат: *.srt
Про файл
General
Unique ID : 322811130942314466089085887033271693407 (0xF2DB298F87774E5103587FC957FCB05F)
Complete name : C:\Small Soldiers (1998) [Ukr,Eng] AVC [Hurtom].
Format :
Format version : Version 4 / Version 2
File size : 1.91 GiB
Duration : 1 h 49 min
Overall bit rate : 2 486 kb/s
Movie name : Солдатики / Small Soldiers (1998)
Encoded date : UTC 2019-12-01 08:37:59
Writing application : v21.0.0 ('Tardigrades Will Inherit The Earth') 32-bit
Writing library : libebml v1.3.5 + v1.4.8
Cover : Yes
Attachments : cover.jpg

Video
ID : 1
Format : AVC
Format/Info : Advanced Video Codec
Format profile : [email protected]
Format settings, CABAC : Yes
Format settings, ReFrames : 8 frames
Codec ID : V_MPEG4/ISO/AVC
Duration : 1 h 49 min
Bit rate : 2 099 kb/s
Width : 1 024 pixels
Height : 436 pixels
Display aspect ratio : 2.35:1
Frame rate mode : Constant
Frame rate : 23.976 (24000/1001) FPS
Color space : YUV
Chroma subsampling : 4:2:0
Bit depth : 8 bits
Scan type : Progressive
Bits/(Pixel*Frame) : 0.196
Stream size : 1.61 GiB (84%)
Title : (AVC) / MPEG-4 AVC/ / 2099 kbps / 1024x436
Writing library : core 133 r2334 a3ac64b
Encoding settings : cabac=1 / ref=8 / deblock=1:-3:-3 / analyse=0x3:0x113 / me=umh / subme=11 / psy=1 / psy_rd=1.00:0.20 / mixed_ref=1 / me_range=32 / chroma_me=1 / trellis=2 / 8x8dct=1 / cqm=0 / deadzone=21,11 / fast_pskip=0 / chroma_qp_offset=-3 / threads=4 / lookahead_threads=1 / sliced_threads=0 / nr=0 / decimate=0 / interlaced=0 / bluray_compat=0 / constrained_intra=0 / bframes=10 / b_pyramid=2 / b_adapt=2 / b_bias=0 / direct=3 / weightb=1 / open_gop=0 / weightp=2 / keyint=240 / keyint_min=23 / scenecut=40 / intra_refresh=0 / rc_lookahead=40 / rc=2pass / mbtree=0 / bitrate=2099 / ratetol=1.0 / qcomp=0.60 / qpmin=0 / qpmax=69 / qpstep=4 / cplxblur=20.0 / qblur=0.5 / vbv_maxrate=50000 / vbv_bufsize=50000 / nal_hrd=none / ip_ratio=1.40 / pb_ratio=1.30 / aq=1:1.00
Language : English
Default : Yes
Forced : Yes

Audio #1
ID : 2
Format : AC-3
Format/Info : Audio Coding 3
Mode extension : CM (complete main)
Format settings, Endianness : Big
Codec ID : A_AC3
Duration : 1 h 49 min
Bit rate mode : Constant
Bit rate : 192 kb/s
Channel(s) : 2 channels
Channel positions : Front: L R
Sampling rate : 48.0 kHz
Frame rate : 31.250 FPS (1536 spf)
Compression mode : Lossy
Stream size : 151 MiB (8%)
Title : ICTV
Language : Ukrainian
Default : Yes
Forced : Yes

Audio #2
ID : 3
Format : AC-3
Format/Info : Audio Coding 3
Mode extension : CM (complete main)
Format settings, Endianness : Big
Codec ID : A_AC3
Duration : 1 h 49 min
Bit rate mode : Constant
Bit rate : 192 kb/s
Channel(s) : 2 channels
Channel positions : Front: L R
Sampling rate : 48.0 kHz
Frame rate : 31.250 FPS (1536 spf)
Compression mode : Lossy
Stream size : 151 MiB (8%)
Language : English
Default : No
Forced : No

Text
ID : 4
Format : UTF-8
Codec ID : S_TEXT/UTF8
Codec ID/Info : UTF-8 Plain Text
Duration : 1 h 48 min
Bit rate : 56 b/s
Count of elements : 1210
Stream size : 45.0 KiB (0%)
Title : Full (Eng) / S_TEXT/UTF8
Language : English
Default : No
Forced : No

Menu
00:00:00.000 : en:The Globotech Touch (Main Titles)
00:07:30.324 : en:A Toy That Kicks...
00:10:31.672 : en:While Dad's Away...
00:18:36.280 : en:The Stowaway Gorgonite
00:21:43.301 : en:The Troublemaker
00:29:40.528 : en:Bazooka and the Bike
00:35:30.710 : en:The Rules Change
00:42:50.483 : en:The Flaw in the Chips
00:49:42.521 : en:Operation Sandman
00:58:14.699 : en:The Rescue Mission
01:04:33.744 : en:War!
01:12:49.739 : en:A Small Siege
01:18:46.262 : en:No More Hiding
01:28:05.904 : en:Fried
01:37:45.192 : en:To Find Gorgon
01:44:14.000 : en:End Titles
Скріншоти














Джерело:
За українську доріжку дякую п. nick_89, NemoInFire
За постер дякую пану Дмитро митро
Особиста оцінка: не дивився


Срібний реліз (на рейтинг впливає 50% завантаженого)
 Трекер:    Зареєстрований   

Завантажити / скачати фільм українською



відео для новачків



 Зареєстрований:   2019-12-01 11:02
 Розмір:   1.91 GB 
 Оцінка фільму:   9.5/10 (Голосів: 10)
   
Інші релізи
   Солдатики / Small Soldiers (1998) 1080p Ukr/Eng | Sub Eng boroznaya  2 / 0   8.02 GB   2018-05-10 09:12 
   Солдатики / Small Soldiers (1998) NemoInFire  2 / 0   2.06 GB   2012-05-04 19:34 
Ваш часовий пояс: GMT + 2 Години

Нова тема   Відповісти