Воно 2 / It Chapter Two (2019) UHD Remux 4K 2160p Ukr/Eng | Sub Eng

Нові коментарі

Нова тема   Відповісти
Автор Повідомлення
Anonymous 







2019-12-01 11:54  
Воно 2 / It Chapter Two (2019) UHD Remux 4K 2160p Ukr/Eng | Sub Eng


Альтернативний постер

«Ти знову пливеш»



Жанр: жахи
Країна: Канада, США



Кінокомпанія: KatzSmith Productions, Lin Pictures, New Line Cinema
Режисер: Андрес Мускетті
Актори: Джессіка Честейн, Джеймс МакЕвой, Білл Хейдер, Айзая Мустафа, Джеймс Ренсон, Енді Бін, Білл Скарсгард, Джейден Мартелл, Вайатт Олефф, Джек Грейзер

Сюжет:
Коли в містечку Деррі, штат Мен, починають пропадати діти, кілька хлопців стикаються зі своїми найбільшими страхами і змушені помірятися силами зі злісним клоуном Пеннівайз, чиї прояви жорстокості і список жертв йдуть в глиб століть.


Тривалість: 02:49:25
Якість: UHD Remux 4K 2160p

Відео:
кодек: H.265 (HEVC)
розмір кадру: 3840x2160
бітрейт: 53600 кб/с
бітова глибина: 10 біт
кольоровий простір: BT.2020 (HDR)

Аудіо # 1:
мова: українська
переклад: професійний дубльований | студія Postmodern
кодек: 5.1
бітрейт: 384 кб/с

Аудіо # 2:
мова: англійська
переклад: оригінал
кодек: 5.1
бітрейт: 640 кб/с

Аудіо # 3:
мова: англійська
переклад: оригінал
кодек: TrueHD + Atmos 7.1
бітрейт: 3408 кб/с

Субтитри # 1: (Forced)
мова: українська
тип: програмні (м'які)
формат: *.srt

Субтитри # 2: (SDH)
мова: англійська
тип: програмні (м'які)
формат: *.srt
Info
Код:
General
Complete name                            : It Chapter Two (2019) UHD Remux 4K 2160p [Ukr_Eng] [Video_Hurtom].
Format                                   :
Format version                           : Version 4
File size                                : 68.8 GiB
Duration                                 : 2 h 49 min
Overall bit rate mode                    : Variable
Overall bit rate                         : 58.1 Mb/s
Encoded date                             : UTC 2019-12-01 02:42:44
Writing application                      : v30.1.0 ('Forever And More') 64-bit
Writing library                          : libebml v1.3.6 + v1.4.9
Cover                                    : Yes
Attachments                              : cover.jpg

Video
ID                                       : 1
Format                                   : HEVC
Format/Info                              : High Efficiency Video Coding
Commercial name                          : HDR10
Format profile                           : Main [email protected]@High
Codec ID                                 : V_MPEGH/ISO/HEVC
Duration                                 : 2 h 49 min
Bit rate                                 : 53.6 Mb/s
Width                                    : 3 840 pixels
Height                                   : 2 160 pixels
Display aspect ratio                     : 16:9
Frame rate mode                          : Constant
Frame rate                               : 23.976 (24000/1001) FPS
Color space                              : YUV
Chroma subsampling                       : 4:2:0 (Type 2)
Bit depth                                : 10 bits
Bits/(Pixel*Frame)                       : 0.270
Stream size                              : 63.4 GiB (92%)
Language                                 : English
Default                                  : Yes
Forced                                   : No
Color range                              : Limited
Color primaries                          : BT.2020
Transfer characteristics                 : PQ
Matrix coefficients                      : BT.2020 non-constant
Mastering display color primaries        : Display P3
Mastering display luminance              : min: 0.0050 cd/m2, max: 4000 cd/m2

Audio #1
ID                                       : 2
Format                                   : AC-3
Format/Info                              : Audio Coding 3
Commercial name                          : Dolby Digital
Codec ID                                 : A_AC3
Duration                                 : 2 h 49 min
Bit rate mode                            : Constant
Bit rate                                 : 384 kb/s
Channel(s)                               : 6 channels
Channel layout                           : L R C LFE Ls Rs
Sampling rate                            : 48.0 kHz
Frame rate                               : 31.250 FPS (1536 SPF)
Bit depth                                : 16 bits
Compression mode                         : Lossy
Stream size                              : 465 MiB (1%)
Title                                    : , 5.1, 384 Kbps
Language                                 : Ukrainian
Service kind                             : Complete Main
Default                                  : Yes
Forced                                   : No

Audio #2
ID                                       : 3
Format                                   : AC-3
Format/Info                              : Audio Coding 3
Commercial name                          : Dolby Digital
Codec ID                                 : A_AC3
Duration                                 : 2 h 49 min
Bit rate mode                            : Constant
Bit rate                                 : 640 kb/s
Channel(s)                               : 6 channels
Channel layout                           : L R C LFE Ls Rs
Sampling rate                            : 48.0 kHz
Frame rate                               : 31.250 FPS (1536 SPF)
Bit depth                                : 16 bits
Compression mode                         : Lossy
Stream size                              : 776 MiB (1%)
Title                                    : , 5.1, 640 Kbps
Language                                 : English
Service kind                             : Complete Main
Default                                  : No
Forced                                   : No

Audio #3
ID                                       : 4
Format                                   : MLP FBA 16-ch
Format/Info                              : Meridian Lossless Packing FBA with 16-channel presentation
Commercial name                          : Dolby TrueHD with Dolby Atmos
Codec ID                                 : A_TRUEHD
Duration                                 : 2 h 49 min
Bit rate mode                            : Variable
Bit rate                                 : 3 408 kb/s
Maximum bit rate                         : 5 559 kb/s
Channel(s)                               : 8 channels
Channel layout                           : L R C LFE Ls Rs Lb Rb
Sampling rate                            : 48.0 kHz
Frame rate                               : 1 200.000 FPS (40 SPF)
Compression mode                         : Lossless
Stream size                              : 4.03 GiB (6%)
Title                                    : TrueHD, 7.1, 3408 Kbps
Language                                 : English
Default                                  : No
Forced                                   : No
Number of dynamic objects                : 15
Bed channel count                        : 1 channel
Bed channel configuration                : LFE

Text #1
ID                                       : 5
Format                                   : UTF-8
Codec ID                                 : S_TEXT/UTF8
Codec ID/Info                            : UTF-8 Plain Text
Duration                                 : 2 h 48 min
Bit rate                                 : 1 b/s
Count of elements                        : 66
Stream size                              : 2.33 KiB (0%)
Title                                    : Forced
Language                                 : Ukrainian
Default                                  : Yes
Forced                                   : No

Text #2
ID                                       : 6
Format                                   : UTF-8
Codec ID                                 : S_TEXT/UTF8
Codec ID/Info                            : UTF-8 Plain Text
Duration                                 : 2 h 44 min
Bit rate                                 : 60 b/s
Count of elements                        : 2828
Stream size                              : 72.8 KiB (0%)
Title                                    : SDH
Language                                 : English
Default                                  : No
Forced                                   : No

Menu
00:00:00.000                             : en:Chapter 01
00:09:10.341                             : en:Chapter 02
00:19:06.354                             : en:Chapter 03
00:27:00.744                             : en:Chapter 04
00:37:51.227                             : en:Chapter 05
00:46:19.986                             : en:Chapter 06
00:55:46.802                             : en:Chapter 07
01:05:36.474                             : en:Chapter 08
01:17:19.134                             : en:Chapter 09
01:29:21.565                             : en:Chapter 10
01:41:02.974                             : en:Chapter 11
01:49:11.336                             : en:Chapter 12
01:59:33.833                             : en:Chapter 13
02:05:31.774                             : en:Chapter 14
02:14:25.933                             : en:Chapter 15
02:22:43.889                             : en:Chapter 16
02:32:57.168                             : en:Chapter 17
02:42:15.643                             : en:Chapter 18
02:44:52.508                             : en:Chapter 19
Скріншоти


Джерело:
Особиста оцінка: 8 - мені сподобалося
Увага! Перед завантаженням переконайтесь, що ваш пристрій відтворення (та/або ПЗ) підтримує H.265 (HEVC)


Золотий реліз (завантажене не впливає на рейтинг)
 Трекер:    Зареєстрований   

Завантажити / скачати фільм українською



відео для новачків



 Зареєстрований:   2019-12-01 11:54
 Розмір:   68.77 GB 
 Оцінка фільму:   8.1/10 (Голосів: 11)
   
Інші релізи
   Воно 2 / It Chapter Two (2019) AVC Ukr/Eng | Sub Eng 11FrYkT  18 / 1   3.1 GB   2019-12-02 11:34 
   Воно 2 / It Chapter Two (2019) 720p Ukr/Eng | Sub Eng 11FrYkT  12 / 0   5.32 GB   2019-12-02 11:17 
   Воно 2 / It Chapter Two (2019) Remux 1080p Ukr/Eng | Sub Eng antik_2008  3 / 0   28.83 GB   2019-12-02 08:17 
   Воно 2 / It Chapter Two (2019) Ukr/Eng antik_2008  4 / 0   3.01 GB   2019-12-01 03:08 
   Воно 2 / It Chapter Two (2019) 1080p Ukr/Eng | Sub Eng antik_2008  16 / 0   17.73 GB   2019-11-29 15:38 
13Mark 
Поважний учасник


З нами з: 25.04.08
Востаннє: 29.09.20
Повідомлень: 211

2019-12-07 00:37  
Таке собі, не так погано, як чекав після відгуків. Просто нормально, як і перший фільм, не більше. З зомбі правда то був перебір.
Ваш часовий пояс: GMT + 2 Години

Нова тема   Відповісти