Формула 1. Сезон 2019. Етап 21. Гран-Прі Абу-Дабі. Кваліфікація (30.11.2019) 720p 50fps Ukr/Eng/Int

Нові коментарі

Нова тема   Відповісти
Автор Повідомлення
sergiyko.5 
VIP


З нами з: 25.02.16
Востаннє: 28.10.20
Повідомлень: 3638

2019-12-01 10:10  
Формула 1. Сезон 2019. Етап 21. Гран-Прі Абу-Дабі. Кваліфікація (30.11.2019) 720p 50fps


Формула 1. Сезон 2019. Етап 21. Гран-Прі Абу-Дабі. Кваліфікація (30.11.2019) 720p 50fps Ukr/Eng/Int

Жанр: Перегони Формули 1
Країна: Абу-Дабі
Телеканал: FEED
Коментатор: Максим Подзігун, Sky Sports

Опис:
Кваліфікація 21 етапу Гран-Прі Абу-Дабі 2019 року.


Якість:

Відео: кодек: розмір кадру: 1280 х 720 бітрейт: 5100 кб/с
Аудіо 1: мова: українська кодек: 2.0 бітрейт: 192 кб/с
Аудіо 2: мова: англійська кодек: 5.1 бітрейт: 384 кб/с
Аудіо 3: мова: англійська кодек: 5.1 бітрейт: 384 кб/с
Аудіо 4: мова: відсутня кодек: 5.1 бітрейт: 448 кб/с
Тривалість:
01:15:37
Про файл:
General
Unique ID : 70627583891549842187721585257033203688 (0x352260BC32388C707033ADECD5EB7FE8)
Complete name : D:\Documents\Torrents\SPORT\F1.2019.21.Abu.Dhabi.Qualifying..720p.50fps.
Format :
Format version : Version 4
File size : 3.30 GiB
Duration : 1 h 15 min
Overall bit rate : 6 245 kb/s
Movie name : rip by sergiyko
Encoded date : UTC 2019-12-01 08:06:50
Writing application : v40.0.0 ('Old Town Road + Pony') 64-bit
Writing library : libebml v1.3.9 + v1.5.2

Video
ID : 1
Format : AVC
Format/Info : Advanced Video Codec
Format profile : [email protected]
Format settings : CABAC / 4 Ref Frames
Format settings, CABAC : Yes
Format settings, Reference : 4 frames
Codec ID : V_MPEG4/ISO/AVC
Duration : 1 h 15 min
Bit rate : 4 833 kb/s
Width : 1 280 pixels
Height : 720 pixels
Display aspect ratio : 16:9
Frame rate mode : Constant
Frame rate : 50.000 FPS
Color space : YUV
Chroma subsampling : 4:2:0
Bit depth : 8 bits
Scan type : Progressive
Bits/(Pixel*Frame) : 0.105
Stream size : 2.55 GiB (77%)
Language : English
Default : Yes
Forced : No
Color range : Limited
Color primaries : BT.709
Transfer characteristics : BT.709
Matrix coefficients : BT.709

Audio #1
ID : 2
Format : AC-3
Format/Info : Audio Coding 3
Commercial name : Dolby Digital
Codec ID : A_AC3
Duration : 1 h 15 min
Bit rate mode : Constant
Bit rate : 192 kb/s
Channel(s) : 2 channels
Channel layout : L R
Sampling rate : 48.0 kHz
Frame rate : 31.250 FPS (1536 SPF)
Compression mode : Lossy
Delay relative to video : 4 ms
Stream size : 104 MiB (3%)
Title : Максим Подзігун
Language : Ukrainian
Service kind : Complete Main
Default : Yes
Forced : Yes

Audio #2
ID : 3
Format : AC-3
Format/Info : Audio Coding 3
Commercial name : Dolby Digital
Codec ID : A_AC3
Duration : 1 h 15 min
Bit rate mode : Constant
Bit rate : 384 kb/s
Channel(s) : 6 channels
Channel layout : L R C LFE Ls Rs
Sampling rate : 48.0 kHz
Frame rate : 31.250 FPS (1536 SPF)
Compression mode : Lossy
Delay relative to video : 24 ms
Stream size : 208 MiB (6%)
Title : SkySports F1
Language : English
Service kind : Complete Main
Default : No
Forced : No

Audio #3
ID : 4
Format : AC-3
Format/Info : Audio Coding 3
Commercial name : Dolby Digital
Codec ID : A_AC3
Duration : 1 h 15 min
Bit rate mode : Constant
Bit rate : 384 kb/s
Channel(s) : 6 channels
Channel layout : L R C LFE Ls Rs
Sampling rate : 48.0 kHz
Frame rate : 31.250 FPS (1536 SPF)
Compression mode : Lossy
Delay relative to video : 24 ms
Stream size : 208 MiB (6%)
Title : Channel 4
Language : English
Service kind : Complete Main
Default : No
Forced : No

Audio #4
ID : 5
Format : AC-3
Format/Info : Audio Coding 3
Commercial name : Dolby Digital
Codec ID : A_AC3
Duration : 1 h 15 min
Bit rate mode : Constant
Bit rate : 448 kb/s
Channel(s) : 6 channels
Channel layout : L R C LFE Ls Rs
Sampling rate : 48.0 kHz
Frame rate : 31.250 FPS (1536 SPF)
Compression mode : Lossy
Delay relative to video : 24 ms
Stream size : 242 MiB (7%)
Title : Natural Sounds
Service kind : Complete Main
Default : No
Forced : No
Скріншоти:


Запис/ріп: Shewa1
Зведення: sergiyko


 Трекер:    Зареєстрований   

Завантажити / скачати торрент



відео для новачків



 Зареєстрований:   2019-12-01 10:10
 Розмір:   3.3 GB 
 Оцінка:   9/10 (Голосів: 10)
   
AseSaha 
Новенький


З нами з: 07.10.18
Востаннє: 27.10.20
Повідомлень: 1

2019-12-01 23:06  
Это сингапур. не качайте
Ваш часовий пояс: GMT + 2 Години

Нова тема   Відповісти