Мандалорець (Сезон 1, Серії 1-5) / The Mandalorian (Season 1, Episodes 1-5) (2019) 1080p

Нові коментарі

Нова тема   Відповісти
Автор Повідомлення
Anaive 
Свій


З нами з: 07.06.11
Востаннє: 13.12.19
Повідомлень: 76

2019-12-01 00:45  
1-ий сезон: Rip 720p

Мандалорець (Сезон 1, Серії 1-5) / The Mandalorian (Season 1, Episodes 1-5) (2019) 1080p

Мандалорець (Сезон 1, Серії 1-5) / The Mandalorian (Season 1, Episodes 1-5) (2019) 1080p


Жанр: фантастика, бойовик, пригодницький
Країна: США



Кінокомпанія / телеканал: Lucasfilm Ltd., Walt Disney Studios, Disney+
Режисер: Дебора Чоу, Рік Фамуйва, Дейв Філоні, Брайс Даллас Говард, Тайка Вайтіті
Актори/ролі озвучують: Педро Паскаль, Кайл Пацек, Брендан Вейн, Бернард Бален, Александра Гілман

Сюжет:
Історія мандалорця тепер на "малих" екранах, в якій представнику колись такого могутнього народу доведеться виживати в закапелках галактики Всесвіту Зоряних Війн.


Тривалість: 1 серія: 00:40:00 ( цілком серій: 4 з 8)
Перелік серій
Серія 01
Серія 02
Серія 03
Серія 04
Серія 05
Якість:
Відео:
кодек: AVC
розмір кадру: 1920x1080
бітрейт: ~ 8457 кб/с

Аудіо # 1:
мова: українська
переклад: одноголосий закадровий
кодек: 2.0
бітрейт: 384 кб/с

Джерело озвучення та перекладу:
| Енейв
Info

General
Unique ID : 152507885538650444405191294622483852063 (0x72BBF34A3AD3E7D52644174F9D4BAB1F)
Complete name : E:\Video\The Mandalorian (Season 1) ukr 1080p\The_Mandalorian S01E01 [Audio Ukr AnaivE] 1080p.
Format :
Format version : Version 4
File size : 2.39 GiB
Duration : 38 min 47 s
Overall bit rate mode : Variable
Overall bit rate : 8 840 kb/s
Encoded date : UTC 2019-11-30 21:29:11
Writing application : v29.0.0 ('Like It Or Not') 64-bit
Writing library : libebml v1.3.6 + v1.4.9

Video
ID : 1
Format : AVC
Format/Info : Advanced Video Codec
Format profile : [email protected]
Format settings : CABAC / 4 Ref Frames
Format settings, CABAC : Yes
Format settings, Reference : 4 frames
Codec ID : V_MPEG4/ISO/AVC
Duration : 38 min 46 s
Bit rate mode : Variable
Bit rate : 8 457 kb/s
Maximum bit rate : 12.7 Mb/s
Width : 1 920 pixels
Height : 1 080 pixels
Display aspect ratio : 16:9
Frame rate mode : Constant
Frame rate : 23.976 (24000/1001) FPS
Color space : YUV
Chroma subsampling : 4:2:0
Bit depth : 8 bits
Scan type : Progressive
Bits/(Pixel*Frame) : 0.170
Stream size : 2.29 GiB (96%)
Language : English
Default : Yes
Forced : Yes
Color range : Limited
Color primaries : BT.709
Transfer characteristics : BT.709
Matrix coefficients : BT.709

Audio
ID : 2
Format : LC
Format/Info : Advanced Audio Codec Low Complexity
Codec ID : A_AAC-2
Duration : 38 min 47 s
Bit rate : 384 kb/s
Channel(s) : 2 channels
Channel layout : L R
Sampling rate : 48.0 kHz
Frame rate : 46.875 FPS (1024 SPF)
Compression mode : Lossy
Stream size : 107 MiB (4%)
Language : Ukrainian
Default : Yes
Forced : Yes
Скріншоти


Особиста оцінка: 10 - я просто обожнюю Всесвіт Зоряних Війн


Авторський реліз (завантажувати можна без реєстрації)
 Трекер:    Зареєстрований   

Завантажити / скачати серіал українською



відео для новачків



 Зареєстрований:   2019-12-08 17:04
 Розмір:   11.92 GB 
 Оцінка серіалу:   9.9/10 (Голосів: 22)
   
sanyokfuriv 
Частий відвідувач


З нами з: 05.07.11
Востаннє: 13.12.19
Повідомлень: 40

2019-12-06 20:29  
чекаємо на 5-ту Wink (1)
sanyokfuriv 
Частий відвідувач


З нами з: 05.07.11
Востаннє: 13.12.19
Повідомлень: 40

2019-12-08 11:53  
Друже Енейв, а що там з 5 серією ???
Anaive 
Свій


З нами з: 07.06.11
Востаннє: 13.12.19
Повідомлень: 76

2019-12-08 17:07  
поки що в 720р

Додано через 2 хвилини 35 секунд:

вже завантжую 1080р ріп)

Додано через 33 хвилини 30 секунд:
рендер
Проблема в тому що ріп 1080р відрязнієтсья від 720р, тому доводиться кожного разу рендерити все з початку. Потім з вав в аас, а після цього ліпити контейнер мкв.

Додано через 29 хвилин 53 секунди:

5 серія.
Дякую за підтримку Happy

Electroz 
Відео Гуртом - підтримка та поширення
Відео Гуртом - підтримка та поширення


З нами з: 18.09.14
Востаннє: 14.12.19
Повідомлень: 3664

2019-12-08 18:52  
Anaive
Чи можливо отримати овервойси до всіх серій?

Anaive 
Свій


З нами з: 07.06.11
Востаннє: 13.12.19
Повідомлень: 76

2019-12-08 19:01  
так, всі збережені
Ваш часовий пояс: GMT + 2 Години

Нова тема   Відповісти