Ми досі не знаємо імені квіточки, яку бачили того дня / Ano Hi Mita Hana no Namae o Bokutachi wa Mada Shiranai (Серії 5 із 11) (2011) 1080p Ukr/Jap | Ukr sub

Нові коментарі

Нова тема   Відповісти
Автор Повідомлення
Mitsuruki 
VIP


З нами з: 27.09.17
Востаннє: 13.12.19
Повідомлень: 558

2019-11-30 22:01  
Ми досі не знаємо імені квіточки, яку бачили того дня /
Ano Hi Mita Hana no Namae o Bokutachi wa Mada Shiranai (Серії 5 із 11) (2011) 1080p Ukr/Jap | Ukr sub

Ми досі не знаємо імені квіточки, яку бачили того дня / Ano Hi Mita Hana no Namae o Bokutachi wa Mada Shiranai (Серії 5 із 11) (2011) 1080p Ukr/Jap | Ukr sub


Жанр: драма, повсякденність
Країна: Японія

Рейтинги:



Кінокомпанія: A-1 Pictures
Режисер: Наґай Тацуюкі

Сюжет:
Весела компанія з шести друзів дитячих років, розпалася з трагічною смертю дівчинки на ім'я Менма. Джінта Ядомі, визнаний лідер групи, почав звинувачувати себе у смерті подруги і віддалився від усіх, ставши класичним хікі. Інші пішли різними шляхами - хтось поступив в престижну старшу школу, хтось намагається жити звичайним життям, дехто взагалі подався подорожувати. Все б так і йшло, але одного дня Менма з'явилася знову.


Тривалість: 1 серія: приблизно 25 хв (цілком серій: 11)
Якість:
Відео:
кодек:
розмір кадру: 1920 х 1080
бітрейт: 900 кб/с

Аудіо # 1:
мова: українська
переклад: двоголосий закадровий
озвучення: Artymko та VasylT
кодек:
бітрейт: 1200 кб/с

Аудіо # 2:
мова: японська
переклад: оригінал
кодек: 2.0
бітрейт: 114 кб/с

Субтитри:
мова: українська (написи)
тип: програмні (м'які)
формат: *.

мова: українська (повна)
тип: програмні (м'які)
формат: *.

Над релізом працювали:
Переклад: Gedet та Mormor
Редагування: Mormor
Ролі озвучували: Artymko та VasylT
Робота зі звуком: VasylT

Подякувати за роботу та підтримати проєкт грошенятами можна тут💰 - https://cutt.ly/OyGX1C
Info
General
Unique ID : 223225103056299926525450193254042896019 (0xA7EF974DD73AE744E59A5B6235550693)
Complete name : C:\Users\Furunze\Desktop\01_Ми_досі_не_знаємо_імені_квіточки.
Format :
Format version : Version 4
File size : 388 MiB
Duration : 24 min 30 s
Overall bit rate mode : Variable
Overall bit rate : 2 215 kb/s
Movie name : Encoded by MGRT
Encoded date : UTC 2019-11-30 09:13:16
Writing application : v32.0.0 ('Astral Progressions') 64-bit
Writing library : libebml v1.3.7 + v1.5.0

Video
ID : 1
Format : AVC
Format/Info : Advanced Video Codec
Format profile : High [email protected]
Format settings : CABAC / 7 Ref Frames
Format settings, CABAC : Yes
Format settings, Reference : 7 frames
Codec ID : V_MPEG4/ISO/AVC
Duration : 24 min 29 s
Bit rate : 900 kb/s
Width : 1 920 pixels
Height : 1 080 pixels
Display aspect ratio : 16:9
Frame rate mode : Constant
Frame rate : 23.976 (23976/1000) FPS
Color space : YUV
Chroma subsampling : 4:2:0
Bit depth : 10 bits
Scan type : Progressive
Bits/(Pixel*Frame) : 0.018
Stream size : 158 MiB (41%)
Writing library : core 133 r2334+704+50 a7549b7 tMod [[email protected] X86_64]
Language : English
Default : Yes
Forced : No
Color range : Limited
Matrix coefficients : BT.709

Audio #1
ID : 2
Format : LC
Format/Info : Advanced Audio Codec Low Complexity
Codec ID : A_AAC-2
Duration : 24 min 29 s
Bit rate : 114 kb/s
Channel(s) : 2 channels
Channel layout : L R
Sampling rate : 48.0 kHz
Frame rate : 46.875 FPS (1024 SPF)
Compression mode : Lossy
Delay relative to video : 20 ms
Stream size : 19.9 MiB (5%)
Language : Japanese
Default : No
Forced : No

Audio #2
ID : 3
Format :
Format/Info : Free Lossless Audio Codec
Codec ID : A_FLAC
Duration : 24 min 30 s
Bit rate mode : Variable
Bit rate : 1 199 kb/s
Channel(s) : 2 channels
Channel layout : L R
Sampling rate : 48.0 kHz
Frame rate : 11.719 FPS (4096 SPF)
Bit depth : 24 bits
Compression mode : Lossless
Stream size : 210 MiB (54%)
Title : Artymko & Vasyl T
Writing library : libFLAC 1.2.1 (UTC 2007-09-17)
Language : Ukrainian
Default : Yes
Forced : Yes

Text #1
ID : 4
Format :
Codec ID : S_TEXT/
Codec ID/Info : Advanced Sub Station Alpha
Duration : 22 min 50 s
Bit rate : 182 b/s
Count of elements : 432
Compression mode : Lossless
Stream size : 30.6 KiB (0%)
Title : Gedet & Mormor
Language : Ukrainian
Default : No
Forced : No

Text #2
ID : 5
Format :
Codec ID : S_TEXT/
Codec ID/Info : Advanced Sub Station Alpha
Duration : 23 min 40 s
Bit rate : 37 b/s
Count of elements : 72
Compression mode : Lossless
Stream size : 6.54 KiB (0%)
Title : Gedet & Mormor (Signs)
Language : Ukrainian
Default : Yes
Forced : Yes
Скріншоти





Джерело: Gedet & Озвучення Mitsuruki
Особиста оцінка: 10 - без зайвих вагань рекомендую всім!


Авторський реліз (завантажувати можна без реєстрації)
 Трекер:    Зареєстрований   

Завантажити / скачати аніме українською



відео для новачків



 Зареєстрований:   2019-12-12 18:59
 Розмір:   1.95 GB 
 Оцінка аніме:   9.8/10 (Голосів: 4)
   
Ваш часовий пояс: GMT + 2 Години

Нова тема   Відповісти