Брати Сістерс (The Sisters Brothers) / Les frères Sisters (2018) 720p Ukr/Eng

Нові коментарі

Нова тема   Відповісти
Автор Повідомлення
Arch Enemy 
VIP


З нами з: 30.08.12
Востаннє: 21.09.20
Повідомлень: 1908

2019-11-30 20:28  
Брати Сістерс / The Sisters Brothers / Les frères Sisters (2018) 720p Ukr/Eng



Жанр: вестерн, кримінальний, пригодницький
Країна: Франція, Іспанія, Румунія, Бельгія, США



Кінокомпанія: Why Not Productions та ін.
Режисер: Жак Одіар
Актори: Джон С. Рейллі, Хоакін Фенікс, Джейк Джилленгол, Різ Ахмед, Ребекка Рут, Еллісон Толман, Рутґер Гауер, Керол Кейн, Зак Еббот та інші.

Сюжет:
За завданням таємничого командора брати-беззаконники на прізвище Сістерс вступають у сутичку з розумним авантюристом — золотошукачем Вормом. Однак той зовсім не бажає бути їхньою черговою жертвою, тому на противагу грубій силі, що спрямована проти нього, підключає свій гострий розум і кмітливість.


Тривалість: 02:01:05
Якість: 720p

Відео:
кодек:
розмір кадру: 1280х534
бітрейт: 4500 кбіт/сек.
контейнер:

Аудіо # 1:
мова: українська
озвучення: багатоголосе закадрове
кодек: 2.0
бітрейт: 256 кбіт/сек.

Аудіо # 2:
мова: англійська
озвучення: оригінал
кодек: 5.1
бітрейт: 224 кбіт/сек.
Info
General
Unique ID : 208293040954725395987795182056881460881 (0x9CB3C7CD6BA6A22B7F4470D0849B1691)
Complete name : D:\Films\The.Sisters.Brothers.2018..720p.
Format :
Format version : Version 4
File size : 4.22 GiB
Duration : 2 h 4 min
Overall bit rate : 4 859 kb/s
Movie name : The Sisters Brothers [2018]
Encoded date : UTC 2019-12-15 20:27:48
Writing application : v40.0.0 ('Old Town Road + Pony') 64-bit
Writing library : libebml v1.3.9 + v1.5.2

Video
ID : 1
Format : AVC
Format/Info : Advanced Video Codec
Format profile : [email protected]
Format settings : CABAC / 12 Ref Frames
Format settings, CABAC : Yes
Format settings, Reference : 12 frames
Codec ID : V_MPEG4/ISO/AVC
Duration : 2 h 1 min
Bit rate : 4 500 kb/s
Width : 1 280 pixels
Height : 534 pixels
Display aspect ratio : 2.40:1
Frame rate mode : Constant
Frame rate : 24.000 FPS
Color space : YUV
Chroma subsampling : 4:2:0
Bit depth : 8 bits
Scan type : Progressive
Bits/(Pixel*Frame) : 0.274
Stream size : 3.81 GiB (90%)
Title : The Sisters Brothers [2018]
Writing library : core 148 r2705kMod 3f5ed56
Encoding settings : cabac=1 / ref=12 / deblock=1:-2:-2 / analyse=0x3:0x133 / me=umh / subme=10 / psy=1 / fade_compensate=0.00 / psy_rd=1.20:0.07 / mixed_ref=1 / me_range=24 / chroma_me=1 / trellis=2 / 8x8dct=1 / cqm=0 / deadzone=21,11 / fast_pskip=0 / chroma_qp_offset=-3 / threads=12 / lookahead_threads=2 / sliced_threads=0 / nr=0 / decimate=0 / interlaced=0 / bluray_compat=0 / constrained_intra=0 / fgo=0 / bframes=8 / b_pyramid=2 / b_adapt=2 / b_bias=0 / direct=3 / weightb=1 / open_gop=0 / weightp=2 / keyint=240 / keyint_min=24 / scenecut=40 / intra_refresh=0 / rc_lookahead=50 / rc=2pass / mbtree=0 / bitrate=4500 / ratetol=1.0 / qcomp=0.60 / qpmin=0 / qpmax=51 / qpstep=4 / cplxblur=20.0 / qblur=0.5 / vbv_maxrate=50000 / vbv_bufsize=62500 / nal_hrd=none / filler=0 / ip_ratio=1.40 / pb_ratio=1.30 / aq=3:0.80
Language : English
Default : Yes
Forced : Yes

Audio #1
ID : 2
Format : AC-3
Format/Info : Audio Coding 3
Commercial name : Dolby Digital
Codec ID : A_AC3
Duration : 2 h 4 min
Bit rate mode : Constant
Bit rate : 256 kb/s
Channel(s) : 2 channels
Channel layout : L R
Sampling rate : 48.0 kHz
Frame rate : 31.250 FPS (1536 SPF)
Bit depth : 16 bits
Compression mode : Lossy
Stream size : 228 MiB (5%)
Title : AniUA MVO
Language : Ukrainian
Service kind : Complete Main
Default : Yes
Forced : Yes

Audio #2
ID : 3
Format : AC-3
Format/Info : Audio Coding 3
Commercial name : Dolby Digital
Codec ID : A_AC3
Duration : 2 h 1 min
Bit rate mode : Constant
Bit rate : 224 kb/s
Channel(s) : 6 channels
Channel layout : L R C LFE Ls Rs
Sampling rate : 48.0 kHz
Frame rate : 31.250 FPS (1536 SPF)
Bit depth : 16 bits
Compression mode : Lossy
Stream size : 194 MiB (4%)
Title : Original
Language : English
Service kind : Complete Main
Default : No
Forced : No

Menu
00:00:00.000 : en:00:00:00.000
00:10:52.458 : en:00:10:52.458
00:22:14.167 : en:00:22:14.167
00:28:34.083 : en:00:28:34.083
00:41:19.625 : en:00:41:19.625
00:50:30.250 : en:00:50:30.250
00:59:41.083 : en:00:59:41.083
01:10:16.542 : en:01:10:16.542
01:20:06.500 : en:01:20:06.500
01:29:20.292 : en:01:29:20.292
01:40:09.083 : en:01:40:09.083
01:49:51.708 : en:01:49:51.708


Озвучено за фінансової підтримки NemoInFire


Джерело озвучення та релізу: AniUA


Авторський реліз (завантажувати можна без реєстрації)
 Трекер:    Зареєстрований   

Завантажити / скачати фільм українською



відео для новачків



 Зареєстрований:   2019-12-15 23:55
 Розмір:   4.22 GB 
 Оцінка фільму:   9.6/10 (Голосів: 14)
   
bot 
робот


З нами з: 30.09.07
Востаннє: 26.05.05
Повідомлень: 25569

2019-12-15 23:54  
Тему перенесено з Анонси релізів до форуму Фільми в HD


Arch Enemy

igor911 
Модератор відео


З нами з: 18.01.08
Востаннє: 22.09.20
Повідомлень: 15000

2019-12-15 23:58  
Цитата:
мова: англійська
кодек: 5.1
бітрейт: 224 кбіт/сек.

навішо так знущатися над звуком?

Electroz 
Відео Гуртом - підтримка та поширення
Відео Гуртом - підтримка та поширення


З нами з: 18.09.14
Востаннє: 22.09.20
Повідомлень: 4016

2019-12-16 01:13  
Arch Enemy написано:

Аудіо # 1:
мова: українська
озвучення: багатоголосе закадрове
кодек: 2.0
бітрейт: 256 кбіт/сек.

https://toloka.to/t83624
Arch Enemy написано:
"Це не так вже й складно!"

Arch Enemy 
VIP


З нами з: 30.08.12
Востаннє: 21.09.20
Повідомлень: 1908

2019-12-16 02:23  
Electroz
нажаль, це не я робив звук, тому маємо таке...
на мені лише клейка готового звуку до відео, яке мені скинули і оформлення релізу.
igor911
це вже питання до невідомого пана, який робив цей ріп.

igor911 
Модератор відео


З нами з: 18.01.08
Востаннє: 22.09.20
Повідомлень: 15000

2019-12-16 09:20  
Arch Enemy написано:
це вже питання до невідомого пана, який робив цей ріп.

ні, це питання до релізера.

Arch Enemy 
VIP


З нами з: 30.08.12
Востаннє: 21.09.20
Повідомлень: 1908

2019-12-16 12:11  
igor911 написано:
ні, це питання до релізера.

Релізер ніякого відношення до того, як скодовано аудіо в ріпі не має.
+ на скільки бачу - ніяких порушень в цьому релізі знову ж таки немає.

Якщо вас безпосередньо бентежить невелика "цифра" швидкості аудіо-потоку оригінала (я розумію, що можливо здається замалою, але ніяких артефактів у звуці я не помітив) чи то 2-канальне аудіо в українській доріжці, то я можу передати дане питання на розгляд.

alexhap 
Частий відвідувач


З нами з: 23.09.16
Востаннє: 22.09.20
Повідомлень: 27

2019-12-16 12:38  
igor911 написано:
навішо так знущатися над звуком?

може зробимо опитування: яка якість звуку спиймається спільнотою як мінімально необхідна до поширених стандартів відео.
Власне я не розумію нащо до посередньої якості відео пхати топовий звук, ще й оригінальний. Можете пояснити?

Electroz 
Відео Гуртом - підтримка та поширення
Відео Гуртом - підтримка та поширення


З нами з: 18.09.14
Востаннє: 22.09.20
Повідомлень: 4016

2019-12-16 15:24  
Arch Enemy написано:
чи то 2-канальне аудіо в українській доріжці, то я можу передати дане питання на розгляд.

Треба робити зразу 5.1 доріжки, бо з стерео цього не зробиш...

igor911 
Модератор відео


З нами з: 18.01.08
Востаннє: 22.09.20
Повідомлень: 15000

2019-12-16 16:48  
alexhap, який 'топовий', ти про що? Топовий - це -HD чи а я кажу про оптимальний АС3 5.1 448/640 кб/с. А тут недолугий кастрат з 224 кб на 6 каналів, хоча б в ААС вже додавали, там хоч бітрейт оптимальніше між каналами розподіляється, а не тупо порівну ділиться на 6.
Electroz 
Відео Гуртом - підтримка та поширення
Відео Гуртом - підтримка та поширення


З нами з: 18.09.14
Востаннє: 22.09.20
Повідомлень: 4016

2019-12-17 20:46  
Arch Enemy
Коли очікувати на оновлення доріжки?

Arch Enemy 
VIP


З нами з: 30.08.12
Востаннє: 21.09.20
Повідомлень: 1908

2019-12-18 05:41  
Electroz написано:
Коли очікувати на оновлення доріжки?

Українська доріжка в 5.1 перероблюватись не буде.
І це не моя персональна забаганка, тож вибачте - маємо, що маємо...

Electroz 
Відео Гуртом - підтримка та поширення
Відео Гуртом - підтримка та поширення


З нами з: 18.09.14
Востаннє: 22.09.20
Повідомлень: 4016

2019-12-18 13:21  
Arch Enemy написано:

Українська доріжка в 5.1 перероблюватись не буде.
І це не моя персональна забаганка, тож вибачте - маємо, що маємо...

Чисті голоси ще можна отримати?

Arch Enemy 
VIP


З нами з: 30.08.12
Востаннє: 21.09.20
Повідомлень: 1908

2019-12-19 17:24  
Electroz написано:
Чисті голоси ще можна отримати?

Як би можна було, я б цього не писав, а зробив.

krigg070 
Відео Гуртом - фільмокрай
Відео Гуртом - фільмокрай


З нами з: 29.10.14
Востаннє: 22.09.20
Повідомлень: 1774

2019-12-19 22:59  
Arch Enemy написано:
ніяких артефактів у звуці я не помітив)

Порушено об'ємність звучання (чути на перших же секундах цвіркунів, які звучать як із дупи). Кривий даунмікс або звукач щось намутив.

Додано через 1 хвилину 6 секунд:

Імовірно бокові канали просто приглушені.

Ваш часовий пояс: GMT + 2 Години

Нова тема   Відповісти