П'яний світанок / Tequila Sunrise (1988) Remux 1080p Ukr/Eng | Sub Eng

Нові коментарі

Нова тема   Відповісти
Автор Повідомлення
MakRA 
VIP


З нами з: 11.11.18
Востаннє: 30.09.20
Повідомлень: 1120

2019-11-30 16:49  
П'яний світанок / Tequila Sunrise (1988) Remux 1080p Ukr/Eng | Sub Eng

П'яний світанок / Tequila Sunrise (1988) Remux 1080p Ukr/Eng | Sub Eng

Альтернативний постер:

Жанр: кримінальний, романтичний, драма
Країна: США



Кінокомпанія: Cinema City Films, The Mount Company, Warner Bros
Режисер: Роберт Таун [Robert Towne]
Актори: Мел Гібсон [Mel Gibson], Мішель Пфайффер [Michelle Pfeiffer], Курт Рассел [Kurt Russell], Рауль Хуліа [Raul Julia], Дж. Т. Волш [J.T. Walsh], Арлісс Хауард [Arliss Howard], Гебріел Деймон [Gabriel Damon], Том Нолан [Tom Nolan]

Сюжет:
Мак МакКьюссик, який займався продажем наркотиків, вирішив покінчити з наркобізнесом. Агенти ФБР, що займаються пошуком наркодилера Карлоса, дізналися, що Мак, єдиний, хто знав його в обличчя, якимось чином причетний до значної партії опіуму, поставленого з Мексики. Тепер його поставили перед вибором: або він допомагає слідству, або сідає у в’язницю.


Тривалість: 01:55:16
Якість: Remux 1080p
Відео:
кодек:
розмір кадру: 1920 х 1080
бітрейт: 20 Mб/с

Аудіо # 1:
мова: українська
переклад: багатоголосий закадровий
кодек: 2.0
бітрейт: 192 кб/с

Аудіо # 2:
мова: англійська
переклад: оригінал
кодек: -HD MA 2.0
бітрейт: 2082 кб/с

Аудіо # 3:
мова: англійська
переклад: оригінал
кодек: 2.0
бітрейт: 192 кб/с

Субтитри: (Full)
мова: англійська
тип: пререндерні
формат: *.pgs

Збережено оригінальні розділи, як на Blu-ray.
Info
General
Unique ID : 301254192300780194105503842880318352072 (0xE2A3726D70B6F45D74E216E2E9402AC8)
Complete name : I:\+Фільмографії- Мел Гібсон [Mel Gibson]\Tequila Sunrise (1988) Remux 1080p UkrEng Sub Eng [Hurtom].
Format :
Format version : Version 4
File size : 18.1 GiB
Duration : 1 h 55 min
Overall bit rate mode : Variable
Overall bit rate : 22.4 Mb/s
Movie name : П'яний світанок / Tequila Sunrise (1988) Remux 1080p Ukr/Eng | Sub Eng [Hurtom]
Encoded date : UTC 2019-11-30 13:11:38
Writing application : v25.0.0 ('Prog Noir') 64-bit
Writing library : libebml v1.3.6 + v1.4.9
Cover : Yes
Attachments : cover.jpg

Video
ID : 1
Format : AVC
Format/Info : Advanced Video Codec
Format profile : [email protected]
Format settings : CABAC / 2 Ref Frames
Format settings, CABAC : Yes
Format settings, Reference fra : 2 frames
Codec ID : V_MPEG4/ISO/AVC
Duration : 1 h 55 min
Bit rate mode : Variable
Bit rate : 20.0 Mb/s
Width : 1 920 pixels
Height : 1 080 pixels
Display aspect ratio : 16:9
Frame rate mode : Constant
Frame rate : 23.976 (24000/1001) FPS
Color space : YUV
Chroma subsampling : 4:2:0
Bit depth : 8 bits
Scan type : Progressive
Bits/(Pixel*Frame) : 0.402
Stream size : 16.1 GiB (89%)
Title : Tequila Sunrise (1988) Remux 1080p Ukr/Eng | Sub Eng [Hurtom]
Language : Ukrainian
Default : Yes
Forced : Yes

Audio #1
ID : 2
Format : AC-3
Format/Info : Audio Coding 3
Commercial name : Dolby Digital
Codec ID : A_AC3
Duration : 1 h 55 min
Bit rate mode : Constant
Bit rate : 192 kb/s
Channel(s) : 2 channels
Channel layout : L R
Sampling rate : 48.0 kHz
Frame rate : 31.250 FPS (1536 SPF)
Bit depth : 16 bits
Compression mode : Lossy
Stream size : 158 MiB (1%)
Title : MVO [ІНТЕР] 2.0
Language : Ukrainian
Service kind : Complete Main
Default : Yes
Forced : Yes

Audio #2
ID : 3
Format : XLL
Format/Info : Digital Theater Systems
Commercial name : -HD Master Audio
Codec ID : A_DTS
Duration : 1 h 55 min
Bit rate mode : Variable
Bit rate : 2 082 kb/s
Channel(s) : 2 channels
Sampling rate : 48.0 kHz
Frame rate : 93.750 FPS (512 SPF)
Bit depth : 24 bits
Compression mode : Lossless
Stream size : 1.68 GiB (9%)
Title : Original -HD MA 2.0
Language : English
Default : No
Forced : No

Audio #3
ID : 4
Format : AC-3
Format/Info : Audio Coding 3
Commercial name : Dolby Digital
Codec ID : A_AC3
Duration : 1 h 55 min
Bit rate mode : Constant
Bit rate : 192 kb/s
Channel(s) : 2 channels
Channel layout : L R
Sampling rate : 48.0 kHz
Frame rate : 31.250 FPS (1536 SPF)
Bit depth : 16 bits
Compression mode : Lossy
Stream size : 158 MiB (1%)
Title : Original 2.0
Language : English
Service kind : Complete Main
Default : No
Forced : No

Text
ID : 5
Format : PGS
Muxing mode : zlib
Codec ID : S_HDMV/PGS
Codec ID/Info : Picture based subtitle format used on BDs/HD-DVDs
Duration : 1 h 54 min
Bit rate : 36.5 kb/s
Count of elements : 2992
Stream size : 29.9 MiB (0%)
Title : Eng (Full)
Language : English
Default : No
Forced : No

Menu
00:00:00.000 : en:Chapter 1
00:02:08.586 : en:Chapter 2
00:06:02.404 : en:Chapter 3
00:07:42.128 : en:Chapter 4
00:10:34.843 : en:Chapter 5
00:14:25.114 : en:Chapter 6
00:16:21.856 : en:Chapter 7
00:17:44.689 : en:Chapter 8
00:21:26.660 : en:Chapter 9
00:25:35.242 : en:Chapter 10
00:35:08.315 : en:Chapter 11
00:41:06.839 : en:Chapter 12
00:44:39.010 : en:Chapter 13
00:47:39.106 : en:Chapter 14
00:52:09.335 : en:Chapter 15
00:56:34.433 : en:Chapter 16
00:57:33.492 : en:Chapter 17
00:59:51.671 : en:Chapter 18
01:06:04.669 : en:Chapter 19
01:10:52.497 : en:Chapter 20
01:13:54.597 : en:Chapter 21
01:17:51.125 : en:Chapter 22
01:22:34.908 : en:Chapter 23
01:25:20.365 : en:Chapter 24
01:27:54.436 : en:Chapter 25
01:33:44.702 : en:Chapter 26
01:36:39.585 : en:Chapter 27
01:41:05.559 : en:Chapter 28
01:48:04.978 : en:Chapter 29
01:49:22.514 : en:Chapter 30
01:51:22.092 : en:Chapter 31
Скріншоти
Джерело: &
За українську доріжку подяка п. bodia87
Особиста оцінка: 10 - без зайвих вагань рекомендую всім!


Золотий реліз (завантажене не впливає на рейтинг)
 Трекер:    Зареєстрований   

Завантажити / скачати фільм українською



відео для новачків



 Зареєстрований:   2019-11-30 16:49
 Розмір:   18.07 GB 
 Оцінка фільму:   10/10 (Голосів: 7)
   
Інші релізи
   П'яний світанок / Tequila Sunrise (1988) AVC Ukr/Eng | sub Eng Arsenfpu  2 / 0   1.77 GB   2020-01-07 22:09 
   П'яний світанок / Tequila Sunrise (1988) 1080p Ukr/Eng | Sub Eng MakRA  2 / 0   10.2 GB   2019-11-30 16:55 
   П'яний світанок / Tequila Sunrise (1988) Ukr/Eng drop_plz  3 / 0   2.02 GB   2018-10-18 08:29 
   П'яний світанок / Tequila Sunrise (1988) bodia87  2 / 0   1.81 GB   2013-05-27 18:37 
Ваш часовий пояс: GMT + 2 Години

Нова тема   Відповісти