Формула 1. Ганяти, щоб виживати / Formula 1: Drive to Survive (Сезон 1) (2019) 1080p Ukr/Eng

Нові коментарі

Нова тема   Відповісти
немає
Автор Повідомлення
sergiyko.5 
Попереджень: 1
Попереджень: 1 


З нами з: 25.02.16
Востаннє: 28.09.20
Повідомлень: 3483

2019-11-30 15:45  
Формула 1. Ганяти, щоб виживати / Formula 1: Drive to Survive (Сезон 1) (2019) 1080p Ukr/Eng

Формула 1. Ганяти, щоб виживати / Formula 1: Drive to Survive (Сезон 1) (2019) 1080p Ukr/Eng

Жанр: документальний, спорт
Країна: Велика Британія
Телеканал / кіностудія: Netflix
Режисер: Роберт Форд, Джеймс Грей-Риз, Пол Мартін
Актори: Льюїс Гемільтон , Фернандо Алонсо, Даніель Ріккардо та інші

Сюжет:
"Формула 1. Ганяти, щоб виживати" - це співпраця між Netflix та Formula One, щоб дати ексклюзивний закулісний погляд на Чемпіонат світу Формули-1 2018 року.Серіал дає вболівальникам можливість не тільки простежити за боротьбою за титул з першої до останньої гонки сезону, а й познайомитися з особистим життям їхніх кумирів, побачити, що відбувається всередині команд, тих людей, завдяки яким усі знають Формулу 1 такою, якою вона є.



Тривалість: 00:30:00 (цілком серій 10)
Якість:

Відео: кодек: розмір кадру: 1920 х 1080 бітрейт: 7050 кб/с
Аудіо # 1: мова: українська переклад: одноголосий закадровий кодек: 2.0 бітрейт: 192 кб/с | Максим Подзігун |
Аудіо # 2: мова: англійська переклад: оригінал кодек: 5.1 бітрейт: 448 кб/с
Перелік серій:

01. All to Play For
02. The King of Spain
03. Redemption
04. The Art of War
05. Trouble at the Top
06. All or Nothing
07. Keeping Your Head
08. The Next Generation
09. Stars and Stripes
10. Crossing the Line
Про файл:
General
Unique ID : 40333959616904416150754624828147357034 (0x1E5809BE5008138F1B3226CCD501D56A)
Complete name : D:\Syrci\Formula.1.Drive.to.Survive.S01.1080p.NF..DDP5.1.-NTG\Formula.1.Drive.to.Survive.S01E01.All.to.Play.For.1080p.NF..DDP5.1.-NTG.
Format :
Format version : Version 4
File size : 1.88 GiB
Duration : 36 min 14 s
Overall bit rate mode : Variable
Overall bit rate : 7 423 kb/s
Encoded date : UTC 2019-03-08 10:52:32
Writing application : v21.0.0 ('Tardigrades Will Inherit The Earth') 64-bit
Writing library : libebml v1.3.5 + v1.4.8
IsTruncated : Yes

Video
ID : 1
Format : AVC
Format/Info : Advanced Video Codec
Format profile : [email protected]
Format settings : CABAC / 3 Ref Frames
Format settings, CABAC : Yes
Format settings, Reference fra : 3 frames
Codec ID : V_MPEG4/ISO/AVC
Duration : 36 min 14 s
Bit rate mode : Variable
Bit rate : 7 150 kb/s
Maximum bit rate : 10.7 Mb/s
Width : 1 920 pixels
Height : 1 080 pixels
Display aspect ratio : 16:9
Frame rate mode : Constant
Frame rate : 25.000 FPS
Color space : YUV
Chroma subsampling : 4:2:0
Bit depth : 8 bits
Scan type : Progressive
Bits/(Pixel*Frame) : 0.138
Stream size : 1.73 GiB (92%)
Writing library : core 148 r2715 7e75228
Encoding settings : cabac=1 / ref=3 / deblock=1:0:0 / analyse=0x1:0x111 / me=umh / subme=10 / psy=1 / psy_rd=1.00:0.00 / mixed_ref=1 / me_range=24 / chroma_me=1 / trellis=2 / 8x8dct=0 / cqm=0 / deadzone=21,11 / fast_pskip=1 / chroma_qp_offset=-2 / threads=8 / lookahead_threads=1 / sliced_threads=0 / nr=0 / decimate=1 / interlaced=0 / bluray_compat=0 / stitchable=1 / constrained_intra=0 / bframes=2 / b_pyramid=0 / b_adapt=2 / b_bias=0 / direct=3 / weightb=1 / open_gop=0 / weightp=2 / keyint=50 / keyint_min=26 / scenecut=0 / intra_refresh=0 / rc_lookahead=50 / rc=2pass / mbtree=1 / bitrate=7150 / ratetol=1.0 / qcomp=0.50 / qpmin=6 / qpmax=51 / qpstep=4 / cplxblur=20.0 / qblur=0.5 / vbv_maxrate=10725 / vbv_bufsize=14300 / nal_hrd=vbr / filler=0 / ip_ratio=1.40 / aq=1:1.00
Default : Yes
Forced : No

Audio
ID : 2
Format : E-AC-3 JOC
Format/Info : Enhanced AC-3 with Joint Object Coding
Commercial name : Dolby Digital Plus with Dolby Atmos
Codec ID : A_EAC3
Duration : 36 min 14 s
Bit rate mode : Constant
Bit rate : 448 kb/s
Channel(s) : 6 channels
Channel layout : L R C LFE Ls Rs
Sampling rate : 48.0 kHz
Frame rate : 31.250 FPS (1536 SPF)
Compression mode : Lossy
Stream size : 116 MiB (6%)
Title : English
Language : English
Service kind : Complete Main
Default : Yes
Forced : No
Complexity index : 16
Number of dynamic objects : 15
Bed channel count : 1 channel
Bed channel configuration : LFE

Text #1
ID : 3
Format : UTF-8
Codec ID : S_TEXT/UTF8
Codec ID/Info : UTF-8 Plain Text
Title : Forced
Language : English
Default : Yes
Forced : Yes

Text #2
ID : 4
Format : UTF-8
Codec ID : S_TEXT/UTF8
Codec ID/Info : UTF-8 Plain Text
Language : English
Default : No
Forced : No

Text #3
ID : 5
Format : UTF-8
Codec ID : S_TEXT/UTF8
Codec ID/Info : UTF-8 Plain Text
Title : SDH
Language : English
Default : No
Forced : No
Скріншоти:
bot 
робот


З нами з: 30.09.07
Востаннє: 26.05.05
Повідомлень: 25639

2019-11-30 15:46  
Тему перенесено з Документальні фільми в HD до форуму Анонси релізів


sergiyko.5
antik_2008 
Релізер і модератор відео


З нами з: 20.10.08
Востаннє: 28.09.20
Повідомлень: 4161

2020-02-28 15:05  
Другий вийшов Happy - це добре
S6 Plus 
Новенький


З нами з: 16.03.17
Востаннє: 28.09.20
Повідомлень: 4

2020-04-28 17:52  
Доброго дня, коли можна очікувати?
sergiyko.5 
Попереджень: 1
Попереджень: 1 


З нами з: 25.02.16
Востаннє: 28.09.20
Повідомлень: 3483

2020-04-28 18:23  
Подзігун обіцяв підписникам петріону взимку озвучити. Поки тиша.
Alex_F5 
Частий відвідувач


З нами з: 01.11.14
Востаннє: 08.08.20
Повідомлень: 37

2020-05-08 22:37  
То начебто ж вже є https://toloka.to/t100095 - це перший сезон
Другий сезон https://toloka.to/t109577
Ваш часовий пояс: GMT + 2 Години

Нова тема   Відповісти