Книга Ілая / The Book of Eli (2010) 1080p H.265 2xUkr/Eng | Sub Ukr/Eng

Нові коментарі

Нова тема   Відповісти
Автор Повідомлення
Anonymous 







2019-11-30 15:36  
Книга Ілая / The Book of Eli (2010) 1080p H.265 2xUkr/Eng | Sub Ukr/Eng

Книга Ілая / The Book of Eli (2010) 1080p H.265 2xUkr/Eng | Sub Ukr/Eng


Жанр: екшн, пригодницький, драма, трилер, вестерн
Країна: США
Кінокомпанія: Alcon Entertainment, Silver Pictures
Режисер: Альберт Г'юз / Albert Hughes, Аллен Г'юз / Allen Hughes
Актори: Дензел Вашингтон / Denzel Washington, Ґері Олдмен / Gary Oldman, Міла Куніс / Mila Kunis, Рей Стівенсон / Ray Stevenson, Дженіфер Белс / Jennifer Beals, Еван Джонс / Evan Jones, Джо Пінг / Joe Pingue, Френсс де ла Тур / Frances de la Tour, Майкл Гембон / Michael Gambon, Том Вейтс / Tom Waits, Кріс Браунінг / Chris Browning, Річард Сетрон / Richard Cetrone, Латіф Кровдер / Lateef Crowder, Кейт Девіс / Keith Davis, Дон Таї Тіратада / Don Thai Theerathada

Сюжет:
Після всесвітньої катастрофи Америка перетворилася на випалену пустелю. По безкрайніх дорогах, що кишать бандами, які ворогують між собою за воду і їжу, мандрує мудрий Ілай. Одного дня він прибуває в похмурі краї, де колись була квітуча Каліфорнія, а тепер це справжнє пекло, де безчинствує тиран Карнегі. Волею долі Ілай знайомиться з прийомною дочкою Карнегі, красунею Соларою, від якої він дізнається, що її вітчим розробляє страшний план захвату влади на всій Землі.
Ілай повинен врятувати залишки людства від загибелі і захистити дівчину, яку він встиг палко покохати. Ключ до таємниці сили тирана Карнегі — в таємній Книзі, на пошуки якої вирушає хоробрий Ілай, озброєний лише самурайським мечем.

Тривалість: 01:57:36
Якість:

Відео:
кодек: H.265 (HEVC)
розмір кадру: 1920 x 800
бітрейт: 4 007 кб/с
бітова глибина: 10 біт

Увага! Перед завантаженням переконайтесь, що ваш пристрій відтворення (та/або ПЗ) підтримує H.265 (HEVC)

Аудіо # 1:
мова: українська
переклад: багатоголосий закадровий
кодек: AC-3 2.0
бітрейт: 192 кб/с

Аудіо # 2:
мова: українська
переклад: багатоголосий закадровий | Студія Tretyakoff Production
кодек: AC-3 2.0
бітрейт: 192 кб/с

Аудіо # 3:
мова: англійська
переклад: оригінал
кодек: AC-3 5.1
бітрейт: 640 кб/с

Субтитри # 1: (Full by kinoreliz)
мова: українська
тип: програмні (м'які)
формат: *.srt

Субтитри # 2-3: (Full, SDH)
мова: англійська
тип: програмні (м'які)
формат: *.srt


Info
Код:
General
Unique ID                                : 285927127810060037757114846590842536625 (0xD71B8FCDF19D4BE512C2F0D85EA982B1)
Complete name                            : The Book of Eli (2010) 1080p H.265 [2xUKR_ENG] [Hurtom].
Format                                   :
Format version                           : Version 4
File size                                : 4.14 GiB
Duration                                 : 1 h 57 min
Overall bit rate                         : 5 028 kb/s
Movie name                               : Книга Ілая / The Book of Eli (2010)
Encoded date                             : UTC 2020-02-20 21:33:44
Writing application                      : v20.0.0 ('I Am The Sun') 64-bit
Writing library                          : libebml v1.3.5 + v1.4.8
Cover                                    : Yes
Attachments                              : cover.jpg

Video
ID                                       : 1
Format                                   : HEVC
Format/Info                              : High Efficiency Video Coding
Format profile                           : Main [email protected]@High
Codec ID                                 : V_MPEGH/ISO/HEVC
Duration                                 : 1 h 57 min
Bit rate                                 : 4 007 kb/s
Width                                    : 1 920 pixels
Height                                   : 800 pixels
Display aspect ratio                     : 2.40:1
Frame rate mode                          : Constant
Frame rate                               : 23.976 (23976/1000) FPS
Original frame rate                      : 23.976 (24000/1001) FPS
Color space                              : YUV
Chroma subsampling                       : 4:2:0
Bit depth                                : 10 bits
Bits/(Pixel*Frame)                       : 0.109
Stream size                              : 3.29 GiB (80%)
Title                                    : Книга Ілая / The Book of Eli (2010)
Writing library                          : x265 3.2.1+1-b5c86a64bbbe:[Windows][GCC 9.2.0][64 bit] 10bit
Encoding settings                        : cpuid=1111039 / frame-threads=4 / numa-pools=16 / wpp / no-pmode / no-pme / no-psnr / no-ssim / log-level=2 / input-csp=1 / input-res=1920x800 / interlace=0 / total-frames=169176 / level-idc=41 / high-tier=1 / uhd-bd=0 / ref=5 / no-allow-non-conformance / no-repeat-headers / annexb / no-aud / no-hrd / info / hash=0 / no-temporal-layers / open-gop / min-keyint=23 / keyint=240 / gop-lookahead=0 / bframes=12 / b-adapt=2 / b-pyramid / bframe-bias=0 / rc-lookahead=60 / lookahead-slices=1 / scenecut=40 / radl=0 / no-splice / no-intra-refresh / ctu=32 / min-cu-size=8 / rect / amp / max-tu-size=32 / tu-inter-depth=4 / tu-intra-depth=4 / limit-tu=1 / rdoq-level=2 / dynamic-rd=0.00 / no-ssim-rd / signhide / no-tskip / nr-intra=0 / nr-inter=0 / no-constrained-intra / no-strong-intra-smoothing / max-merge=5 / limit-refs=0 / no-limit-modes / me=3 / subme=7 / merange=57 / temporal-mvp / no-hme / weightp / weightb / no-analyze-src-pics / deblock=-2:-2 / no-sao / no-sao-non-deblock / rd=6 / selective-sao=0 / no-early-skip / no-rskip / no-fast-intra / no-tskip-fast / no-cu-lossless / b-intra / no-splitrd-skip / rdpenalty=0 / psy-rd=1.00 / psy-rdoq=1.00 / no-rd-refine / no-lossless / cbqpoffs=0 / crqpoffs=0 / rc=crf / crf=18.0 / qcomp=0.70 / qpstep=4 / stats-write=0 / stats-read=0 / vbv-maxrate=50000 / vbv-bufsize=50000 / vbv-init=0.9 / crf-max=0.0 / crf-min=0.0 / ipratio=1.40 / pbratio=1.30 / aq-mode=2 / aq-strength=1.00 / no-cutree / zone-count=0 / no-strict-cbr / qg-size=32 / no-rc-grain / qpmax=69 / qpmin=0 / no-const-vbv / sar=1 / overscan=0 / videoformat=5 / range=0 / colorprim=1 / transfer=1 / colormatrix=1 / chromaloc=0 / display-window=0 / cll=0,0 / min-luma=0 / max-luma=1023 / log2-max-poc-lsb=8 / vui-timing-info / vui-hrd-info / slices=1 / no-opt-qp-pps / no-opt-ref-list-length-pps / no-multi-pass-opt-rps / scenecut-bias=0.05 / no-opt-cu-delta-qp / no-aq-motion / no-hdr / no-hdr-opt / no-dhdr10-opt / no-idr-recovery-sei / analysis-reuse-level=5 / scale-factor=0 / refine-intra=0 / refine-inter=0 / refine-mv=1 / refine-ctu-distortion=0 / no-limit-sao / ctu-info=0 / no-lowpass-dct / refine-analysis-type=0 / copy-pic=1 / max-ausize-factor=1.0 / no-dynamic-refine / no-single-sei / no-hevc-aq / no-svt / no-field / qp-adaptation-range=1.00
Language                                 : English
Default                                  : Yes
Forced                                   : No
Color range                              : Limited
Color primaries                          : BT.709
Transfer characteristics                 : BT.709
Matrix coefficients                      : BT.709

Audio #1
ID                                       : 2
Format                                   : AC-3
Format/Info                              : Audio Coding 3
Commercial name                          : Dolby Digital
Codec ID                                 : A_AC3
Duration                                 : 1 h 57 min
Bit rate mode                            : Constant
Bit rate                                 : 192 kb/s
Channel(s)                               : 2 channels
Channel layout                           : L R
Sampling rate                            : 48.0 kHz
Frame rate                               : 31.250 FPS (1536 SPF)
Compression mode                         : Lossy
Stream size                              : 162 MiB (4%)
Title                                    : / 2.0 Ch / 192 kbps / БЗ / Cine+
Language                                 : Ukrainian
Service kind                             : Complete Main
Default                                  : Yes
Forced                                   : Yes

Audio #2
ID                                       : 3
Format                                   : AC-3
Format/Info                              : Audio Coding 3
Commercial name                          : Dolby Digital
Codec ID                                 : A_AC3
Duration                                 : 1 h 57 min
Bit rate mode                            : Constant
Bit rate                                 : 192 kb/s
Channel(s)                               : 2 channels
Channel layout                           : L R
Sampling rate                            : 48.0 kHz
Frame rate                               : 31.250 FPS (1536 SPF)
Compression mode                         : Lossy
Stream size                              : 162 MiB (4%)
Title                                    : / 2.0 Ch / 192 kbps / БЗ / Воля Кіно / Tretyakoff production
Language                                 : Ukrainian
Service kind                             : Complete Main
Default                                  : No
Forced                                   : No

Audio #3
ID                                       : 4
Format                                   : AC-3
Format/Info                              : Audio Coding 3
Commercial name                          : Dolby Digital
Codec ID                                 : A_AC3
Duration                                 : 1 h 57 min
Bit rate mode                            : Constant
Bit rate                                 : 640 kb/s
Channel(s)                               : 6 channels
Channel layout                           : L R C LFE Ls Rs
Sampling rate                            : 48.0 kHz
Frame rate                               : 31.250 FPS (1536 SPF)
Compression mode                         : Lossy
Stream size                              : 538 MiB (13%)
Title                                    : / 5.1 Ch / 640 kbps / Original
Language                                 : English
Service kind                             : Complete Main
Default                                  : No
Forced                                   : No

Text #1
ID                                       : 5
Format                                   : UTF-8
Codec ID                                 : S_TEXT/UTF8
Codec ID/Info                            : UTF-8 Plain Text
Duration                                 : 1 h 46 min
Bit rate                                 : 50 b/s
Count of elements                        : 952
Stream size                              : 39.7 KiB (0%)
Title                                    : Full by kinoreliz
Language                                 : Ukrainian
Default                                  : Yes
Forced                                   : No

Text #2
ID                                       : 6
Format                                   : UTF-8
Codec ID                                 : S_TEXT/UTF8
Codec ID/Info                            : UTF-8 Plain Text
Duration                                 : 1 h 40 min
Bit rate                                 : 34 b/s
Count of elements                        : 835
Stream size                              : 25.2 KiB (0%)
Title                                    : Full
Language                                 : English
Default                                  : No
Forced                                   : No

Text #3
ID                                       : 7
Format                                   : UTF-8
Codec ID                                 : S_TEXT/UTF8
Codec ID/Info                            : UTF-8 Plain Text
Duration                                 : 1 h 56 min
Bit rate                                 : 34 b/s
Count of elements                        : 1262
Stream size                              : 29.4 KiB (0%)
Title                                    : SDH
Language                                 : English
Default                                  : No
Forced                                   : No

Menu
00:00:00.000                             : en:Target
00:05:37.086                             : en:Night's Rest
00:11:33.693                             : en:Hijackers
00:18:31.109                             : en:Stay on the Path
00:20:47.454                             : en:Just a Customer
00:24:09.865                             : en:Look for a Book
00:27:45.038                             : en:Called to Account
00:31:29.262                             : en:Cursed Be the Ground
00:33:24.210                             : en:We're the Future
00:39:14.560                             : en:Not Talking But Sharing
00:45:21.927                             : en:What Kind of Book?
00:49:05.734                             : en:I Love This Guy
00:54:17.337                             : en:Worth the Trouble
00:58:39.432                             : en:Saving Solara
01:03:00.151                             : en:Protected Somehow
01:05:52.073                             : en:Voice in My Head
01:11:50.889                             : en:George and Martha
01:16:41.388                             : en:Homewreckers
01:20:52.639                             : en:Just a Man
01:26:22.010                             : en:Solara Unbound
01:30:27.713                             : en:West Coast
01:34:55.815                             : en:Book Contents
01:41:13.025                             : en:A Million Miles Away
01:44:47.114                             : en:I Kept the Faith
01:48:41.598                             : en:End Titles
Світлини




Джерело: &
Особиста оцінка: 10 - без зайвих вагань рекомендую всім!


 Трекер:    Зареєстрований   

Завантажити / скачати фільм українською



відео для новачків



 Зареєстрований:   2020-02-21 00:38
 Розмір:   4.14 GB 
 Оцінка фільму:   9.8/10 (Голосів: 11)
   
Інші релізи
   Книга Ілая / The Book of Eli (2010) [Open Matte] AVC 2xUkr/Eng | Sub Eng Sando7  10 / 0   2.03 GB   2019-09-29 12:27 
   Книга Ілая / The Book of Eli (2010) AVC Ukr/Eng | Sub Eng staf777  5 / 0   2.02 GB   2019-05-31 20:22 
   Книга Ілая / The Book of Eli (2010) DVD5 Ukr/Eng | Sub Ukr/Eng/Rus kinoreliz  0 / 0   4.3 GB   2014-01-02 11:37 
   Книга Ілая / The Book of Eli (2010) Ukr/Eng | Sub Eng karvai0  10 / 0   2.02 GB   2012-06-24 22:33 
   Книга Ілая / The Book of Eli (2010) 720p Гірський Кришталь  5 / 0   4.16 GB   2011-01-06 17:17 
   Книга Ілая / The Book of Eli (2010) 1080p Ukr/Eng | Sub Eng Dim-ON  11 / 0   7.72 GB   2010-10-03 18:21 
   Книга Ілая / The Book of Eli (2010) Ukr/Eng | Sub Eng Romario_O  12 / 0   2.18 GB   2010-09-18 13:35 
Anonymous 







2020-02-21 00:40  
Додано субтитри від пана kinoreliz та підписані розділи.
Infoserfer 
Свій


З нами з: 31.10.09
Востаннє: 27.09.20
Повідомлень: 145

2020-08-01 23:24  
Гарний фільм.

Попри постапокаліптичну жорстокість і обмеженість більшості тих, хто вижив, подекуди проглядаються проблиски справжньої людяності й відчувається могутній подих віри, що веде головного героя крізь всі негаразди до здійснення його призначення - зберегти й донести Боже слово до якомога більшої кількості людей з надією на відродження цивілізації.

Є й круті бійки, й прості, але глибокі діалоги, й певна філософічна медитативність.

8/10

Ваш часовий пояс: GMT + 2 Години

Нова тема   Відповісти