Дім з прислугою (Сезон 1) / Servant (Season 1) (2019) 720p Eng | Sub Ukr/Eng

Нові коментарі

Нова тема   Відповісти
Автор Повідомлення
Anonymous 







2019-11-30 13:09  
Дім з прислугою (Сезон 1) / Servant (Season 1) (2019) 720p Eng | Sub Ukr/Eng



Жанр: драма, жахи, трилер
Країна: США



Кінокомпанія: Aplle
Режисер: М. Найт Ш'ямалан
Актори: Лорен Емброуз, Руперт Грінт, Нелл Тайґер Фрі, Тобі Кеббелл.

Сюжет:
"Дім з прислугою" від М. Найта Ш'ямалана розповідає історію подружжя з Філадельфії, що перебуває у жалобі через жахливу трагедію, в результаті якої їній шлюб дає тріщину і впускає у будинок таємну силу.


Тривалість: 1 серія: 32:00 (цілком серій: 10 з 10)
Перелік серій
1. Переродження / Reborn
2. Дерево / Wood
3. Вугор / Eel
4. Ведмідь / Bear
5. Цвіркун / Cricket
6. Дощ / Rain
7. Хагіс / Haggis
8. Боба / Boba
9. Джеріко / Jericho
10. Повітряна кулька / Balloon
Якість:
Відео:
кодек:
розмір кадру: 1356 х 678
бітрейт: 2900 кб/с

Аудіо:
мова: англійська
переклад: оригінал
кодек: E- JOC 5.1
бітрейт: 768 кб/с

Субтитри:
мова: українська
тип: програмні (м'які)
формат: *.srt

Субтитри:
мова: англійська
тип: програмні (м'які)
формат: *.srt
Info
Video
ID : 1
Format : AVC
Format/Info : Advanced Video Codec
Format profile : [email protected]
Format settings : CABAC / 5 Ref Frames
Format settings, CABAC : Yes
Format settings, Reference : 5 frames
Codec ID : V_MPEG4/ISO/AVC
Duration : 34 min 58 s
Bit rate : 2 867 kb/s
Width : 1 356 pixels
Height : 678 pixels
Display aspect ratio : 2.000
Frame rate mode : Constant
Frame rate : 23.976 (24000/1001) FPS
Color space : YUV
Chroma subsampling : 4:2:0
Bit depth : 8 bits
Scan type : Progressive
Bits/(Pixel*Frame) : 0.130
Stream size : 717 MiB (79%)
Language : English
Default : Yes
Forced : No
Color range : Limited
Color primaries : BT.709
Transfer characteristics : BT.709
Matrix coefficients : BT.709

Audio
ID : 2
Format : E-AC-3 JOC
Format/Info : Enhanced AC-3 with Joint Object Coding
Commercial name : Dolby Digital Plus with Dolby Atmos
Codec ID : A_EAC3
Duration : 34 min 58 s
Bit rate mode : Constant
Bit rate : 768 kb/s
Channel(s) : 6 channels
Channel layout : L R C LFE Ls Rs
Sampling rate : 48.0 kHz
Frame rate : 31.250 FPS (1536 SPF)
Compression mode : Lossy
Stream size : 192 MiB (21%)
Language : English
Service kind : Complete Main
Default : Yes
Forced : No
Complexity index : 16
Number of dynamic objects : 15
Bed channel count : 1 channel
Bed channel configuration : LFE

Text #1
ID : 3
Format : UTF-8
Codec ID : S_TEXT/UTF8
Codec ID/Info : UTF-8 Plain Text
Duration : 34 min 19 s
Bit rate : 63 b/s
Count of elements : 321
Stream size : 15.9 KiB (0%)
Language : Ukrainian
Default : Yes
Forced : No

Text #2
ID : 4
Format : UTF-8
Codec ID : S_TEXT/UTF8
Codec ID/Info : UTF-8 Plain Text
Duration : 31 min 19 s
Bit rate : 46 b/s
Count of elements : 311
Stream size : 10.6 KiB (0%)
Title : English
Language : English
Default : No
Forced : No
Скріншоти









Бронзовий реліз (на рейтинг впливає 75% завантаженого)
 Трекер:    Зареєстрований   

Завантажити / скачати серіал українською



відео для новачків



 Зареєстрований:   2020-01-20 19:35
 Розмір:   8.17 GB 
 Оцінка серіалу:   9.4/10 (Голосів: 7)
   
Anonymous 







2019-12-07 01:22  
+ 4 серія
krabapka 
Свій


З нами з: 15.08.15
Востаннє: 27.05.20
Повідомлень: 92

2019-12-08 18:20  
Трохи затягнуто, з натяком на містику, отой спалений будинок та кладовище дуже посміхнуло. І ця руда ведуча дуже противна.
Anonymous 







2019-12-13 18:16  
+ 5 серія
Anonymous 







2019-12-20 14:59  
+ 6 серія
tpolit 
VIP


З нами з: 10.01.15
Востаннє: 27.05.20
Повідомлень: 573

2019-12-21 11:49  
Хороший серіал, але дуже повільний розвиток подій. Все що було показано в 5 серіях можна було помістити в третину односерійного фільму. Дуже подобаються трохи комічні образи Тобі Кеббелла та Руперта Грінта, а гра Лорен Емброуз взагалі вражає, недарма вона отримала дві нагороди Гільдії кіноакторів.
nazarx 
Новенький


З нами з: 20.12.19
Востаннє: 25.05.20
Повідомлень: 12

2020-01-04 00:45  
Продовження буде? Бо щось довго не було нових серій. До речі, цікавий факт, якщо в гуглі забити пошукову фразу "Дім з прислугою торрент", то не знайдете жодного україномовного результату.
Anonymous 







2020-01-09 18:38  
nazarx написано:
Продовження буде?

Оновлю вже, коли будуть усі серії. Але ви можете завантажити їх собі на [посилання видалено, п.2.10]
завантажуйте серії де є підпис CasStudio[rartv]

nazarx 
Новенький


З нами з: 20.12.19
Востаннє: 25.05.20
Повідомлень: 12

2020-01-10 14:27  
Anonymous написано:
Але ви можете завантажити їх собі на


Дякую, це те що треба. Не знав про цей сайт.

Anonymous 







2020-01-20 19:35  
+ 7-10 серії. повний сезон.
don pedro 
Попереджень: 1
Попереджень: 1 


З нами з: 29.06.11
Востаннє: 26.05.20
Повідомлень: 16958

2020-01-21 01:43  
Поки що нічого о пуття незрозуміло (чи є якісь чари, чи ні), але дуже цікаво. Чекаю другого сезону.
ivan vyrvyvuho 
VIP


З нами з: 19.08.12
Востаннє: 27.05.20
Повідомлень: 1149

2020-02-19 23:38  
Слабенький серіал. жахи можна викреслити з жанру. Це трилер, ну трохи заплутаний і це його мінус. Події подекуди незрозумілі, деякі речі, типу цвіркунів, чи скалок, йдуть в нікуди. Ну, і найбільше мене бісило майже повна темрява через увесь серіал. У кінці все спрощується і ти розумієш, що в принципі не було на що дивитися, якась абракадабра, чари-мари, і опа фініш!!! Ледве 5 з 10.
antik_2008 
Релізер і модератор відео


З нами з: 20.10.08
Востаннє: 27.05.20
Повідомлень: 3798

2020-05-23 02:23  
На раз піде
цікаво , що в другому сезоні буде Happy

Ваш часовий пояс: GMT + 2 Години

Нова тема   Відповісти