Нічні яструби / Nighthawks (1981) Remux 1080p [Collector's Edition] 3xUkr/Eng | Sub Eng

Нові коментарі

Нова тема   Відповісти
Автор Повідомлення
MakRA 
VIP


З нами з: 11.11.18
Востаннє: 27.09.20
Повідомлень: 1120

2019-11-30 02:35  
Нічні яструби / Nighthawks (1981) Remux 1080p [Collector's Edition] 3xUkr/Eng | Sub Eng


Альтернативні постери:





Жанр: екшн, кримінальний, трилер
Країна: США



Кінокомпанія: Universal Pictures, Martin Poll Productions, The Production Company
Режисер: Брюс Мелмат [Bruce Malmuth], Гері Нельсон [Gary Nelson]
Актори: Сильвестр Сталлоне [Sylvester Stallone], Рутґер Гавер [Rutger Hauer], Біллі Ді Вільямс [Billy Dee Williams], Ліндсі Ваґнер [Lindsay Wagner], Найджел Давенпорт [Nigel Davenport], Персіс Хамбатта [Persis Khambatta], Джо Спінелл [Joe Spinell]

Сюжет:
Двоє нью-йоркських поліцейських - Дік ДаСільва і Меттью Фокс - справжні майстри своєї справи, і успішно борються з правопорушниками. Але ось вони переходять в спецпідрозділ, що б'ється з терористами.

Їхній головний ворог Вулфгар до пори до часу невловимий, його сліди і в Нью-Йорку, і в Лондоні, і в Парижі...


Тривалість: 01:39:14
Якість: Remux 1080p [Collector's Edition] [USA Transfer]
Відео:
кодек:
розмір кадру: 1920 х 1080
бітрейт: 33,5 Mб/с

Аудіо # 1:
мова: українська
переклад: багатоголосий закадровий
кодек: 2.0
бітрейт: 192 кб/с

Аудіо # 2:
мова: українська
переклад: багатоголосий закадровий
кодек: 2.0
бітрейт: 192 кб/с
Про озвучення:
Ролі озвучили:Анатолій Зіновенко, Олесь Гімбаржевський, Ярослав Чорненький та Наталя Романько-Кисельова?.
Аудіо # 3:
мова: українська
переклад: двоголосий закадровий | VHS
кодек: 2.0
бітрейт: 192 кб/с

Аудіо # 4:
мова: англійська
переклад: багатоголосий закадровий
кодек: -HD MA 2.0
бітрейт: 1013 кб/с

Субтитри: (Full)
мова: англійська
тип: пререндерні
формат: *.pgs

Збережено оригінальні розділи, як на Blu-ray.
Info
General
Unique ID : 120044820079535178055031166312314212930 (0x5A4FCA96F5E7E7AD4BAEECBA5F2E9242)
Complete name : I:\+Фільмографії- Сильвестер Сталлоне [Sylvester Stallone]\Nighthawks (1981) Remux 1080p [Collector's Edition] 3xUkrEng Sub Eng [Hurtom].
Format :
Format version : Version 4
File size : 24.3 GiB
Duration : 1 h 39 min
Overall bit rate mode : Variable
Overall bit rate : 35.1 Mb/s
Movie name : Нічні яструби / Nighthawks (1981) Remux 1080p [Collector's Edition] 3xUkr/Eng | Sub Eng [Hurtom]
Encoded date : UTC 2019-11-29 22:45:01
Writing application : v25.0.0 ('Prog Noir') 64-bit
Writing library : libebml v1.3.6 + v1.4.9
Cover : Yes
Attachments : cover.jpg

Video
ID : 1
Format : AVC
Format/Info : Advanced Video Codec
Format profile : [email protected]
Format settings : CABAC / 3 Ref Frames
Format settings, CABAC : Yes
Format settings, Reference fra : 3 frames
Codec ID : V_MPEG4/ISO/AVC
Duration : 1 h 39 min
Bit rate mode : Variable
Bit rate : 33.5 Mb/s
Maximum bit rate : 34.5 Mb/s
Width : 1 920 pixels
Height : 1 080 pixels
Display aspect ratio : 16:9
Frame rate mode : Constant
Frame rate : 23.976 (24000/1001) FPS
Standard : NTSC
Color space : YUV
Chroma subsampling : 4:2:0
Bit depth : 8 bits
Scan type : Progressive
Bits/(Pixel*Frame) : 0.674
Stream size : 23.2 GiB (95%)
Title : Nighthawks (1981) Remux 1080p [Collector's Edition] 3xUkr/Eng | Sub Eng [Hurtom]
Writing library : x264pro - Adobe CS Exporter Plug-in
Encoding settings : cabac=1 / ref=4 / deblock=1:-2:-2 / analyse=0x3:0x113 / me=umh / subme=9 / psy=1 / psy_rd=1.00:0.25 / mixed_ref=1 / me_range=16 / chroma_me=1 / trellis=1 / 8x8dct=1 / cqm=0 / deadzone=6,6 / fast_pskip=1 / chroma_qp_offset=-4 / threads=16 / lookahead_threads=2 / sliced_threads=0 / slices=4 / nr=0 / decimate=0 / interlaced=0 / bluray_compat=1 / constrained_intra=0 / bframes=3 / b_pyramid=1 / b_adapt=2 / b_bias=0 / direct=3 / weightb=1 / open_gop=0 / weightp=1 / keyint=24 / keyint_min=1 / scenecut=40 / intra_refresh=0 / rc_lookahead=24 / rc=crf / mbtree=1 / crf=1.0 / qcomp=0.80 / qpmin=0 / qpmax=69 / qpstep=4 / vbv_maxrate=34500 / vbv_bufsize=30000 / crf_max=0.0 / nal_hrd=vbr / ip_ratio=1.10 / aq=1:0.50
Language : Ukrainian
Default : Yes
Forced : Yes
Color range : Limited
Color primaries : BT.709
Transfer characteristics : BT.709
Matrix coefficients : BT.709

Audio #1
ID : 2
Format : AC-3
Format/Info : Audio Coding 3
Commercial name : Dolby Digital
Codec ID : A_AC3
Duration : 1 h 39 min
Bit rate mode : Constant
Bit rate : 192 kb/s
Channel(s) : 2 channels
Channel layout : L R
Sampling rate : 48.0 kHz
Frame rate : 31.250 FPS (1536 SPF)
Bit depth : 16 bits
Compression mode : Lossy
Stream size : 136 MiB (1%)
Title : MVO [Volia CINE+] 2.0
Language : Ukrainian
Service kind : Complete Main
Default : Yes
Forced : Yes

Audio #2
ID : 3
Format : AC-3
Format/Info : Audio Coding 3
Commercial name : Dolby Digital
Codec ID : A_AC3
Duration : 1 h 39 min
Bit rate mode : Constant
Bit rate : 192 kb/s
Channel(s) : 2 channels
Channel layout : L R
Sampling rate : 48.0 kHz
Frame rate : 31.250 FPS (1536 SPF)
Bit depth : 16 bits
Compression mode : Lossy
Stream size : 136 MiB (1%)
Title : MVO [УКРАЇНА] [NLO.TV] 2.0
Language : Ukrainian
Service kind : Complete Main
Default : No
Forced : No

Audio #3
ID : 4
Format : AC-3
Format/Info : Audio Coding 3
Commercial name : Dolby Digital
Codec ID : A_AC3
Duration : 1 h 39 min
Bit rate mode : Constant
Bit rate : 192 kb/s
Channel(s) : 2 channels
Channel layout : L R
Sampling rate : 48.0 kHz
Frame rate : 31.250 FPS (1536 SPF)
Bit depth : 16 bits
Compression mode : Lossy
Stream size : 136 MiB (1%)
Title : DVO [ICTV] 2.0
Language : Ukrainian
Service kind : Complete Main
Default : No
Forced : No

Audio #4
ID : 5
Format : XLL
Format/Info : Digital Theater Systems
Commercial name : -HD Master Audio
Codec ID : A_DTS
Duration : 1 h 39 min
Bit rate mode : Variable
Bit rate : 1 013 kb/s
Channel(s) : 2 channels
Channel layout : L R
Sampling rate : 48.0 kHz
Frame rate : 93.750 FPS (512 SPF)
Bit depth : 16 bits
Compression mode : Lossless
Stream size : 719 MiB (3%)
Title : Original -HD MA 2.0
Language : English
Default : No
Forced : No

Text
ID : 6
Format : PGS
Muxing mode : zlib
Codec ID : S_HDMV/PGS
Codec ID/Info : Picture based subtitle format used on BDs/HD-DVDs
Duration : 1 h 27 min
Bit rate : 25.4 kb/s
Count of elements : 1484
Stream size : 16.0 MiB (0%)
Title : Eng (Full)
Language : English
Default : No
Forced : No

Menu
00:00:00.000 : en:Chapter 1
00:04:57.045 : en:Chapter 2
00:07:37.122 : en:Chapter 3
00:14:55.269 : en:Chapter 4
00:18:27.522 : en:Chapter 5
00:25:20.602 : en:Chapter 6
00:36:38.777 : en:Chapter 7
00:42:58.157 : en:Chapter 8
00:47:50.617 : en:Chapter 9
00:57:24.273 : en:Chapter 10
01:03:05.364 : en:Chapter 11
01:09:46.515 : en:Chapter 12
01:17:03.327 : en:Chapter 13
01:24:01.869 : en:Chapter 14
01:30:38.015 : en:Chapter 15
01:35:52.621 : en:Chapter 16
Скріншоти
Джерело: &
Над доріжками працювали: п. Sando7, п. POMEO, п. Tanat13, п. NemoInFire
Фільмографії акторів та інформація про озвучення - п. Віктор та п. Neo777
Особиста оцінка: 9 - давно не бачив настільки якісне кіно


Золотий реліз (завантажене не впливає на рейтинг)
 Трекер:    Зареєстрований   

Завантажити / скачати фільм українською



відео для новачків



 Зареєстрований:   2019-11-30 02:35
 Розмір:   24.34 GB 
 Оцінка фільму:   10/10 (Голосів: 6)
   
Інші релізи
   Нічні яструби / Nighthawks (1981) AVC 3хUkr/Eng | Sub Eng Sando7  2 / 0   2.09 GB   2019-05-12 10:54 
   Нічні яструби / Nighthawks (1981) 720p 2хUkr/Eng | Sub Eng igor911  2 / 0   4.96 GB   2015-01-09 12:57 
   Нічні яструби / Nighthawks (1981) HDTV 1080i 2хUkr/Eng | Sub Eng igor911  0 / 0   9.11 GB   2015-01-09 01:50 
   Нічні яструби / Nighthawks (1981) 2хUkr NemoInFire  2 / 0   1.33 GB   2013-10-25 17:56 
[email protected] 
VIP


З нами з: 25.03.17
Востаннє: 27.09.20
Повідомлень: 552

2019-12-16 20:45  
Чудовий фільм
Ваш часовий пояс: GMT + 2 Години

Нова тема   Відповісти