Прокляття «Мері» / Mary (2019) 1080p H.265 Ukr/Eng | Sub Eng

Нові коментарі

Нова тема   Відповісти
Автор Повідомлення
Anonymous 







2019-11-30 01:14  
Прокляття «Мері» / Mary (2019) 1080p H.265 Ukr/Eng | Sub Eng

Прокляття «Мері» / Mary (2019) 1080p H.265 Ukr/Eng | Sub Eng


Жанр: жахи
Країна: США
Кінокомпанія: Tucker Tooley Entertainment
Режисер: Майкл Гоі
Актори:Гері Олдман, Дженніфер Еспозіто, Емілі Мортімер, Стефані Скотт, Майкл Лендіс, Оуен Тіг, Мануель Рульфо

Сюжет:
Сім'я вирушає в плавання на яхті, що обіцяє бути захоплюючою пригодою, а обертається справжнім кошмаром, коли у членів родини по черзі починає вселятися темна сутність і вбивати інших.

Тривалість: 01:24:27
Якість:

Відео:
кодек: H.265 (HEVC)
розмір кадру: 1920 x 800
бітрейт: 6 723 кб/с
бітова глибина: 10 біт

Увага! Перед завантаженням переконайтесь, що ваш пристрій відтворення (та/або ПЗ) підтримує H.265 (HEVC)

Аудіо # 1:
мова: українська
переклад: професійний дубльований
кодек: AC-3 2.0 (стерео)
бітрейт: 192 кб/с

Аудіо # 2:
мова: англійська
переклад: оригінал
кодек: 5.1
бітрейт: 1510 кб/с

Субтитри # 1: (Full)
мова: англійська
тип: програмні (м'які)
формат: *.srt


Info
Код:
General
Unique ID                                : 175750133133572761412789884516192651174 (0x84383E91DD08E1CBE07066A403CE87A6)
Complete name                            : D:\Video\Mary (2019) 1080p H.265 [UKR_ENG] [Hurtom].
Format                                   :
Format version                           : Version 4
File size                                : 4.97 GiB
Duration                                 : 1 h 24 min
Overall bit rate                         : 8 426 kb/s
Movie name                               : Прокляття «Мері» / Mary (2019)
Encoded date                             : UTC 2019-11-28 07:07:36
Writing application                      : v20.0.0 ('I Am The Sun') 64-bit
Writing library                          : libebml v1.3.5 + v1.4.8
Cover                                    : Yes
Attachments                              : cover.jpg

Video
ID                                       : 1
Format                                   : HEVC
Format/Info                              : High Efficiency Video Coding
Format profile                           : Main [email protected]@High
Codec ID                                 : V_MPEGH/ISO/HEVC
Duration                                 : 1 h 24 min
Bit rate                                 : 6 723 kb/s
Width                                    : 1 920 pixels
Height                                   : 800 pixels
Display aspect ratio                     : 2.40:1
Frame rate mode                          : Constant
Frame rate                               : 23.976 (24000/1001) FPS
Color space                              : YUV
Chroma subsampling                       : 4:2:0
Bit depth                                : 10 bits
Bits/(Pixel*Frame)                       : 0.183
Stream size                              : 3.97 GiB (80%)
Title                                    : Прокляття «Мері» / Mary (2019)
Language                                 : English
Default                                  : Yes
Forced                                   : No
Color range                              : Limited
Color primaries                          : BT.709
Transfer characteristics                 : BT.709
Matrix coefficients                      : BT.709

Audio #1
ID                                       : 2
Format                                   : AC-3
Format/Info                              : Audio Coding 3
Commercial name                          : Dolby Digital
Codec ID                                 : A_AC3
Duration                                 : 1 h 24 min
Bit rate mode                            : Constant
Bit rate                                 : 192 kb/s
Channel(s)                               : 2 channels
Channel layout                           : L R
Sampling rate                            : 48.0 kHz
Frame rate                               : 31.250 FPS (1536 SPF)
Bit depth                                : 16 bits
Compression mode                         : Lossy
Stream size                              : 116 MiB (2%)
Title                                    : / 2.0 Ch / 192 kbps / ПД
Language                                 : Ukrainian
Service kind                             : Complete Main
Default                                  : Yes
Forced                                   : Yes

Audio #2
ID                                       : 3
Format                                   :
Format/Info                              : Digital Theater Systems
Codec ID                                 : A_DTS
Duration                                 : 1 h 24 min
Bit rate mode                            : Constant
Bit rate                                 : 1 509 kb/s
Channel(s)                               : 6 channels
Channel layout                           : C L R Ls Rs LFE
Sampling rate                            : 48.0 kHz
Frame rate                               : 93.750 FPS (512 SPF)
Bit depth                                : 24 bits
Compression mode                         : Lossy
Stream size                              : 911 MiB (18%)
Title                                    : / 5.1 Ch / 1509 kbps / Original
Language                                 : English
Default                                  : No
Forced                                   : No

Text
ID                                       : 4
Format                                   : UTF-8
Codec ID                                 : S_TEXT/UTF8
Codec ID/Info                            : UTF-8 Plain Text
Duration                                 : 1 h 16 min
Bit rate                                 : 42 b/s
Count of elements                        : 792
Stream size                              : 23.6 KiB (0%)
Title                                    : Full
Language                                 : English
Default                                  : No
Forced                                   : No

Menu
00:00:00.000                             : en:Chapter 1
00:10:13.279                             : en:Chapter 2
00:21:38.422                             : en:Chapter 3
00:32:06.967                             : en:Chapter 4
00:41:11.552                             : en:Chapter 5
00:51:35.092                             : en:Chapter 6
01:01:38.028                             : en:Chapter 7
01:17:30.855                             : en:Chapter 8
Світлини




Джерело: &
Особиста оцінка: 0 - не дивився


 Трекер:    Зареєстрований   

Завантажити / скачати фільм українською



відео для новачків



 Зареєстрований:   2019-11-30 01:14
 Розмір:   4.97 GB 
 Оцінка фільму:   10/10 (Голосів: 2)
   
Інші релізи
   Прокляття «Мері» / Mary (2019) AVC Ukr/Eng | Sub Eng 11FrYkT  3 / 0   1.41 GB   2019-11-22 23:07 
   Прокляття «Мері» / Mary (2019) antik_2008  2 / 0   1.19 GB   2019-11-17 22:55 
   Прокляття «Мері» / Mary (2019) Remux 1080p Ukr/Eng | Sub Eng staf777  2 / 0   14.53 GB   2019-11-17 10:07 
   Прокляття «Мері» / Mary (2019) 1080p Ukr/Eng | Sub Eng staf777  1 / 0   6.96 GB   2019-11-17 09:13 
   Прокляття «Мері» / Mary (2019) 720p Ukr/Eng | Sub Eng 11FrYkT  2 / 0   3.44 GB   2019-11-17 08:26 
Ваш часовий пояс: GMT + 2 Години

Нова тема   Відповісти