Американська історія Х / American history X (1998) 1080р H.265 Ukr/Eng | Sub Ukr/Eng

Нові коментарі

Нова тема   Відповісти
Автор Повідомлення
Anonymous 







2019-11-29 23:38  
Американська історія Х / American history X (1998) 1080р H.265 Ukr/Eng | Sub Ukr/Eng

Американська історія Х / American history X (1998) 1080р H.265 Ukr/Eng | Sub Ukr/Eng


Жанр: драма, кримінальний
Країна: США
Кінокомпанія: New Line Cinema
Режисер: Тоні Кей
Актори: Едвард Нортон, Едвард Фарлонг, Файруза Балк, Беверлі Д'Анджело, Елліотт Гулд, Дженніфер Лієн

Сюжет:
Лідер місцевої банди скінхедів Дерек Він'ярд міцно утримує авторитет в своєму районі. Переконаний у своїй правоті, він нещадно розправляється з тими, хто має не білий колір шкіри. Незалежність і сміливість Дерека викликають захоплення у його молодшого брата Дені, який вже теж зробив свій вибір.
Але звіряче вбивство двох чорношкірих хлопців, здійснене Дереком, розділяє дороги братів: Дерек опиняється у в'язниці, де існує свій розклад сил, а Дені на волі успішно продовжує справу брата. До тих пір, поки їх шляхи не перетнулися знову ...

Тривалість: 01:58:53
Якість:

Відео:
кодек: H.265 (HEVC)
розмір кадру: 1920 x 1080
бітрейт: 6 896 кб/с
бітова глибина: 10 біт

Увага! Перед завантаженням переконайтесь, що ваш пристрій відтворення (та/або ПЗ) підтримує H.265 (HEVC)

Аудіо # 1:
мова: українська
переклад: багатоголосий закадровий
кодек: 5.1
бітрейт: 1511 кб/с
примітка: українська доріжка отримана шляхом розкладання оригінальної () та заміни центру нестисненим звуком (WAV), що надала студія.

Аудіо # 2:
мова: англійська
переклад: оригінал
кодек: 5.1
бітрейт: 1510 кб/с

Субтитри # 1: (Full by aimtoknow)
мова: українська
тип: програмні (м'які)
формат: *.srt

Субтитри # 2: (Full)
мова: англійська
тип: програмні (м'які)
формат: *.srt


Info
Код:
General
Unique ID                                : 113712204984296050542349696600864181049 (0x558C2C8F5661742C7BDEFD9F72A3CB39)
Complete name                            : American history X (1998) 1080р H.265 [UKR_ENG] [Hurtom].
Format                                   :
Format version                           : Version 4
File size                                : 8.24 GiB
Duration                                 : 1 h 58 min
Overall bit rate                         : 9 918 kb/s
Movie name                               : Американська історія Х / American history X (1998)
Encoded date                             : UTC 2019-11-28 07:16:31
Writing application                      : v20.0.0 ('I Am The Sun') 64-bit
Writing library                          : libebml v1.3.5 + v1.4.8
Cover                                    : Yes
Attachments                              : Cover.jpg

Video
ID                                       : 1
Format                                   : HEVC
Format/Info                              : High Efficiency Video Coding
Format profile                           : Main [email protected]@High
Codec ID                                 : V_MPEGH/ISO/HEVC
Duration                                 : 1 h 58 min
Bit rate                                 : 6 896 kb/s
Width                                    : 1 920 pixels
Height                                   : 1 080 pixels
Display aspect ratio                     : 16:9
Frame rate mode                          : Constant
Frame rate                               : 23.976 (24000/1001) FPS
Color space                              : YUV
Chroma subsampling                       : 4:2:0
Bit depth                                : 10 bits
Bits/(Pixel*Frame)                       : 0.139
Stream size                              : 5.73 GiB (70%)
Title                                    : Американська історія Х / American history X (1998)
Language                                 : English
Default                                  : Yes
Forced                                   : No
Color range                              : Limited
Color primaries                          : BT.709
Transfer characteristics                 : BT.709
Matrix coefficients                      : BT.709

Audio #1
ID                                       : 2
Format                                   :
Format/Info                              : Digital Theater Systems
Codec ID                                 : A_DTS
Duration                                 : 1 h 58 min
Bit rate mode                            : Constant
Bit rate                                 : 1 510 kb/s
Channel(s)                               : 6 channels
Channel layout                           : C L R Ls Rs LFE
Sampling rate                            : 48.0 kHz
Frame rate                               : 93.750 FPS (512 SPF)
Bit depth                                : 24 bits
Compression mode                         : Lossy
Stream size                              : 1.25 GiB (15%)
Title                                    : / 5.1 Ch / 1509 kbps / БЗ / Цікава Ідея
Language                                 : Ukrainian
Default                                  : Yes
Forced                                   : Yes

Audio #2
ID                                       : 3
Format                                   :
Format/Info                              : Digital Theater Systems
Codec ID                                 : A_DTS
Duration                                 : 1 h 58 min
Bit rate mode                            : Constant
Bit rate                                 : 1 509 kb/s
Channel(s)                               : 6 channels
Channel layout                           : C L R Ls Rs LFE
Sampling rate                            : 48.0 kHz
Frame rate                               : 93.750 FPS (512 SPF)
Bit depth                                : 16 bits
Compression mode                         : Lossy
Stream size                              : 1.25 GiB (15%)
Title                                    : / 5.1 Ch / 1509 kbps / Original
Language                                 : English
Default                                  : No
Forced                                   : No

Text #1
ID                                       : 4
Format                                   : UTF-8
Codec ID                                 : S_TEXT/UTF8
Codec ID/Info                            : UTF-8 Plain Text
Duration                                 : 1 h 54 min
Bit rate                                 : 106 b/s
Count of elements                        : 1369
Stream size                              : 89.1 KiB (0%)
Title                                    : Full by aimtoknow
Language                                 : Ukrainian
Default                                  : Yes
Forced                                   : No

Text #2
ID                                       : 5
Format                                   : UTF-8
Codec ID                                 : S_TEXT/UTF8
Codec ID/Info                            : UTF-8 Plain Text
Duration                                 : 1 h 52 min
Bit rate                                 : 76 b/s
Count of elements                        : 1595
Stream size                              : 62.5 KiB (0%)
Title                                    : Full
Language                                 : English
Default                                  : No
Forced                                   : No

Menu
00:00:00.000                             : en:Chapter 01
00:02:41.327                             : en:Chapter 02
00:06:30.765                             : en:Chapter 03
00:08:09.155                             : en:Chapter 04
00:11:03.788                             : en:Chapter 05
00:16:05.589                             : en:Chapter 06
00:17:22.499                             : en:Chapter 07
00:22:21.298                             : en:Chapter 08
00:29:08.163                             : en:Chapter 09
00:33:28.172                             : en:Chapter 10
00:37:55.231                             : en:Chapter 11
00:40:47.611                             : en:Chapter 12
00:50:48.628                             : en:Chapter 13
00:52:24.891                             : en:Chapter 14
00:56:48.279                             : en:Chapter 15
01:01:06.412                             : en:Chapter 16
01:05:51.280                             : en:Chapter 17
01:07:45.352                             : en:Chapter 18
01:08:51.293                             : en:Chapter 19
01:11:52.016                             : en:Chapter 20
01:14:59.495                             : en:Chapter 21
01:18:58.400                             : en:Chapter 22
01:22:11.509                             : en:Chapter 23
01:24:46.790                             : en:Chapter 24
01:31:39.952                             : en:Chapter 25
01:34:25.201                             : en:Chapter 26
01:38:24.523                             : en:Chapter 27
01:42:24.721                             : en:Chapter 28
01:44:11.954                             : en:Chapter 29
01:46:12.574                             : en:Chapter 30
01:51:33.812                             : en:Chapter 31
01:54:04.796                             : en:Chapter 32
01:55:22.916                             : en:Chapter 33
Світлини




Джерело: &
Особиста оцінка: 0 - не дивився


Авторський реліз (завантажувати можна без реєстрації)
 Трекер:    Зареєстрований   

Завантажити / скачати фільм українською



відео для новачків



 Зареєстрований:   2019-11-29 23:38
 Розмір:   8.24 GB 
 Оцінка фільму:   9.8/10 (Голосів: 4)
   
Ваш часовий пояс: GMT + 2 Години

Нова тема   Відповісти