Американська історія Х / American history X (1998) 1080р H.265 Ukr/Eng | Sub Ukr/Eng

Нові коментарі

Нова тема   Відповісти
Автор Повідомлення
Anonymous 







2019-11-30 00:38  
Американська історія Х / American history X (1998) 1080р H.265 Ukr/Eng | Sub Ukr/Eng

Американська історія Х / American history X (1998) 1080р H.265 Ukr/Eng | Sub Ukr/Eng


Жанр: драма, кримінальний
Країна: США
Кінокомпанія: New Line Cinema
Режисер: Тоні Кей
Актори: Едвард Нортон, Едвард Фарлонг, Файруза Балк, Беверлі Д'Анджело, Елліотт Гулд, Дженніфер Лієн

Сюжет:
Лідер місцевої банди скінхедів Дерек Він'ярд міцно утримує авторитет в своєму районі. Переконаний у своїй правоті, він нещадно розправляється з тими, хто має не білий колір шкіри. Незалежність і сміливість Дерека викликають захоплення у його молодшого брата Дені, який вже теж зробив свій вибір.

Але звіряче вбивство двох чорношкірих хлопців, здійснене Дереком, розділяє дороги братів: Дерек опиняється у в'язниці, де існує свій розклад сил, а Дені на волі успішно продовжує справу брата. До тих пір, поки їх шляхи не перетнулися знову ...

Тривалість: 01:58:53
Якість:

Відео:
кодек: H.265 (HEVC)
розмір кадру: 1920 x 1080
бітрейт: 10 161 кб/с
бітова глибина: 10 біт

Увага! Перед завантаженням переконайтесь, що ваш пристрій відтворення (та/або ПЗ) підтримує H.265 (HEVC)

Аудіо # 1:
мова: українська
переклад: одноголосий закадровий
кодек: 5.1
бітрейт: 1510 кб/с
примітка: українська доріжка отримана шляхом розкладання оригінальної () та заміни центру нестисненим звуком (WAV), що надала студія.

Аудіо # 2:
мова: англійська
переклад: оригінал
кодек: 5.1
бітрейт: 1510 кб/с

Субтитри # 1: (Full by aimtoknow)
мова: українська
тип: програмні (м'які)
формат: *.srt

Субтитри # 2: (Full)
мова: англійська
тип: програмні (м'які)
формат: *.srt


Info
Код:
General
Unique ID                                : 224168791918713957520808701208241841854 (0xA8A556C1D84202EBAB9976AD2EEF26BE)
Complete name                            : American history X (1998) 1080р H.265 [UKR_ENG] [Hurtom].
Format                                   :
Format version                           : Version 4
File size                                : 10.9 GiB
Duration                                 : 1 h 58 min
Overall bit rate                         : 13.2 Mb/s
Movie name                               : Американська історія Х / American history X (1998)
Encoded date                             : UTC 2020-07-03 19:56:29
Writing application                      : v20.0.0 ('I Am The Sun') 64-bit
Writing library                          : libebml v1.3.5 + v1.4.8
Cover                                    : Yes
Attachments                              : Cover.jpg

Video
ID                                       : 1
Format                                   : HEVC
Format/Info                              : High Efficiency Video Coding
Format profile                           : Main [email protected]@High
Codec ID                                 : V_MPEGH/ISO/HEVC
Duration                                 : 1 h 58 min
Bit rate                                 : 10.2 Mb/s
Width                                    : 1 920 pixels
Height                                   : 1 080 pixels
Display aspect ratio                     : 16:9
Frame rate mode                          : Constant
Frame rate                               : 23.976 (24000/1001) FPS
Color space                              : YUV
Chroma subsampling                       : 4:2:0
Bit depth                                : 10 bits
Bits/(Pixel*Frame)                       : 0.204
Stream size                              : 8.44 GiB (77%)
Title                                    : Американська історія Х / American history X (1998)
Writing library                          : x265 3.1+7-147fb92c5ed5:[Windows][clang 8.0.0][64 bit] 10bit
Encoding settings                        : cpuid=1111039 / frame-threads=13 / wpp / no-pmode / no-pme / no-psnr / no-ssim / log-level=3 / input-csp=1 / input-res=1920x1080 / interlace=0 / total-frames=0 / level-idc=41 / high-tier=1 / uhd-bd=0 / ref=5 / allow-non-conformance / no-repeat-headers / annexb / no-aud / no-hrd / info / hash=0 / no-temporal-layers / open-gop / min-keyint=23 / keyint=240 / gop-lookahead=0 / bframes=15 / b-adapt=2 / b-pyramid / bframe-bias=0 / rc-lookahead=60 / lookahead-slices=4 / scenecut=60 / radl=0 / no-splice / no-intra-refresh / ctu=64 / min-cu-size=8 / rect / amp / max-tu-size=32 / tu-inter-depth=4 / tu-intra-depth=4 / limit-tu=4 / rdoq-level=2 / dynamic-rd=0.00 / no-ssim-rd / signhide / no-tskip / nr-intra=0 / nr-inter=0 / no-constrained-intra / no-strong-intra-smoothing / max-merge=5 / limit-refs=1 / limit-modes / me=3 / subme=7 / merange=57 / temporal-mvp / no-hme / weightp / weightb / no-analyze-src-pics / deblock=-3:-3 / no-sao / no-sao-non-deblock / rd=6 / no-early-skip / no-rskip / no-fast-intra / no-tskip-fast / no-cu-lossless / b-intra / no-splitrd-skip / rdpenalty=0 / psy-rd=2.00 / psy-rdoq=1.00 / no-rd-refine / no-lossless / cbqpoffs=0 / crqpoffs=0 / rc=crf / crf=21.0 / qcomp=0.70 / qpstep=4 / stats-write=0 / stats-read=0 / vbv-maxrate=50000 / vbv-bufsize=50000 / vbv-init=0.9 / crf-max=30.0 / crf-min=0.0 / ipratio=1.40 / pbratio=1.30 / aq-mode=2 / aq-strength=1.00 / no-cutree / zone-count=0 / no-strict-cbr / qg-size=32 / no-rc-grain / qpmax=69 / qpmin=0 / no-const-vbv / sar=1 / overscan=0 / videoformat=5 / range=0 / colorprim=1 / transfer=1 / colormatrix=1 / chromaloc=0 / display-window=0cll=0,0 / min-luma=0 / max-luma=1023 / log2-max-poc-lsb=8 / vui-timing-info / vui-hrd-info / slices=1 / no-opt-qp-pps / no-opt-ref-list-length-pps / no-multi-pass-opt-rps / scenecut-bias=0.05 / no-opt-cu-delta-qp / no-aq-motion / no-hdr / no-hdr-opt / no-dhdr10-opt / no-idr-recovery-sei / analysis-reuse-level=5 / scale-factor=0 / refine-intra=0 / refine-inter=0 / refine-mv=0 / refine-ctu-distortion=0 / no-limit-sao / ctu-info=0 / no-lowpass-dct / refine-analysis-type=0 / copy-pic=1 / max-ausize-factor=1.0 / no-dynamic-refine / no-single-sei / no-hevc-aq / no-svt / no-field / qp-adaptation-range=1.00
Language                                 : English
Default                                  : Yes
Forced                                   : No
Color range                              : Limited
Color primaries                          : BT.709
Transfer characteristics                 : BT.709
Matrix coefficients                      : BT.709

Audio #1
ID                                       : 2
Format                                   :
Format/Info                              : Digital Theater Systems
Codec ID                                 : A_DTS
Duration                                 : 1 h 58 min
Bit rate mode                            : Constant
Bit rate                                 : 1 510 kb/s
Channel(s)                               : 6 channels
Channel layout                           : C L R Ls Rs LFE
Sampling rate                            : 48.0 kHz
Frame rate                               : 93.750 FPS (512 SPF)
Bit depth                                : 24 bits
Compression mode                         : Lossy
Stream size                              : 1.25 GiB (11%)
Title                                    : / 5.1 Ch / 1509 kbps / MVO / Цікава Ідея
Language                                 : Ukrainian
Default                                  : Yes
Forced                                   : Yes

Audio #2
ID                                       : 3
Format                                   :
Format/Info                              : Digital Theater Systems
Codec ID                                 : A_DTS
Duration                                 : 1 h 58 min
Bit rate mode                            : Constant
Bit rate                                 : 1 509 kb/s
Channel(s)                               : 6 channels
Channel layout                           : C L R Ls Rs LFE
Sampling rate                            : 48.0 kHz
Frame rate                               : 93.750 FPS (512 SPF)
Bit depth                                : 16 bits
Compression mode                         : Lossy
Stream size                              : 1.25 GiB (11%)
Title                                    : / 5.1 Ch / 1509 kbps / Original
Language                                 : English
Default                                  : No
Forced                                   : No

Text #1
ID                                       : 4
Format                                   : UTF-8
Codec ID                                 : S_TEXT/UTF8
Codec ID/Info                            : UTF-8 Plain Text
Duration                                 : 1 h 54 min
Bit rate                                 : 106 b/s
Count of elements                        : 1369
Stream size                              : 89.1 KiB (0%)
Title                                    : Full by aimtoknow
Language                                 : Ukrainian
Default                                  : Yes
Forced                                   : No

Text #2
ID                                       : 5
Format                                   : UTF-8
Codec ID                                 : S_TEXT/UTF8
Codec ID/Info                            : UTF-8 Plain Text
Duration                                 : 1 h 52 min
Bit rate                                 : 76 b/s
Count of elements                        : 1595
Stream size                              : 62.5 KiB (0%)
Title                                    : Full
Language                                 : English
Default                                  : No
Forced                                   : No

Menu
00:00:00.000                             : en:Logos/Credits
00:02:41.328                             : en:That Night
00:06:30.765                             : en:"My Mein Kamf" By Daniel Vinyard
00:08:09.155                             : en:A New Assignment
00:11:03.788                             : en:The Boys Room
00:16:05.590                             : en:"Venice Was a Nice Place to Live"
00:17:22.500                             : en:The Basketball Game
00:22:21.298                             : en:Derek Returns From Prison
00:29:08.163                             : en:"Was That Sweeney on the Phone?"
00:33:28.173                             : en:"American History X" By Daniel Vinyard
00:37:55.231                             : en:Shopping Spree
00:40:47.612                             : en:The Vinyards
00:50:48.629                             : en:Danny and Mother
00:52:24.892                             : en:"I Go Back to That Night..."
00:56:48.280                             : en:The Party
01:01:06.413                             : en:"I Am Out!"
01:05:51.281                             : en:Seth's Gun
01:07:45.353                             : en:Derek's Story
01:08:51.294                             : en:"After Two Days in That Place..."
01:11:52.016                             : en:Dirty Laundry
01:14:59.495                             : en:Visiting Day
01:18:58.400                             : en:The Truth About White Supremacy
01:22:11.510                             : en:"You Don't Get Six Years for Stealing a Tv"
01:24:46.623                             : en:The Attack
01:31:39.953                             : en:"So I Was Right Back Where I Started"
01:34:25.201                             : en:"Tired of Feeling Pissed Off..."
01:38:24.524                             : en:Dad
01:42:24.722                             : en:Derek's Tatoo
01:44:11.954                             : en:"It's 5:40 Am"
01:46:12.575                             : en:A New Morning
01:51:33.812                             : en:The Bathroom
01:54:04.796                             : en:...in the End
01:55:22.916                             : en:End Credits
Світлини




Джерело: &
Особиста оцінка: 0 - не дивився


Авторський реліз (завантажувати можна без реєстрації)
 Трекер:    Зареєстрований   

Завантажити / скачати фільм українською



відео для новачків



 Зареєстрований:   2020-07-03 23:46
 Розмір:   10.95 GB 
 Оцінка фільму:   8.5/10 (Голосів: 11)
   
westigo 
Поважний учасник


З нами з: 07.04.19
Востаннє: 05.08.20
Повідомлень: 153

2020-01-09 12:28  
Відмінний фільм зі змістом, сильний, особливо в кінці. Не всім до смаку прийдеться. Едвард Нортон як завжди незрівнянний і неповторний, думаю один з кращих його фільмів!
Anonymous 







2020-07-05 03:04  
Шикарний фільм. Всім рекомендую до перегляду!
Ваш часовий пояс: GMT + 2 Години

Нова тема   Відповісти