Повільно на захід / Slow West (2015) 720p Ukr/Eng

Нові коментарі

Нова тема   Відповісти
Автор Повідомлення
Arch Enemy 
VIP


З нами з: 30.08.12
Востаннє: 14.12.19
Повідомлень: 1751

2019-11-29 22:20  
Повільно на захід / Slow West (2015) 720p Ukr/Eng



Жанр: екшн, вестерн, драма, пригодницький
Країна: Велика Британія, Нова Зеландія



Кінокомпанія: See-Saw Films, Cross City Sales, DMC Film, Film4, New Zealand Film Commission
Режисер: Джон Маклін
Актори: Майкл Фассбендер, Коді Сміт-МакФі, Карен Пісторіус, Аорере Пакі, Джефрі Томас, Хейден Фрост, Кіран Чернок, Джозеф Пассі, Сем Манзанза, Таванда Маніймо та інші.

Сюжет:
Історія авантюриста на ім'я Сайлас, який супроводжує в небезпечній подорожі уздовж всього американського кордону 16-річного хлопця на ім'я Джей Кавендіш. Джей розшукує дівчину, в яку закоханий. Вони перетнулися випадково, самотній вовк, що відбився від вовчої зграї і заєць, який опинився в вовчому лігві. Він міг дати йому померти, міг вбити, але не вчепився в горло, а пішов з ним по сліду, допомагаючи знайти кохання, що зачаїлося десь, проводжаючи через поля ненависті і ліси страху, твердо, не вирішивши, що робити далі з ним і з собою.


Тривалість: 01:24:01
Якість: 720p

Відео:
кодек:
розмір кадру: 1192х720
бітрейт: 7200 кбіт/сек.
контейнер:

Аудіо # 1:
мова: українська
озвучення: багатоголосе закадрове
кодек: 2.0
бітрейт: 640 кбіт/сек.

Аудіо # 2:
мова: англійська
озвучення: оригінал
кодек: 5.1
бітрейт: 640 кбіт/сек.
Info
General
Unique ID : 307774214215298494265946655390443224329 (0xE78B2853AC4D5DC74ECBC7DD8157BD09)
Complete name : D:\Films\Slow.West..720p.
Format :
Format version : Version 4
File size : 4.98 GiB
Duration : 1 h 24 min
Overall bit rate : 8 478 kb/s
Movie name : Slow West [2015]
Encoded date : UTC 2019-11-29 19:28:05
Writing application : v40.0.0 ('Old Town Road + Pony') 64-bit
Writing library : libebml v1.3.9 + v1.5.2

Video
ID : 1
Format : AVC
Format/Info : Advanced Video Codec
Format profile : [email protected]
Format settings : CABAC / 9 Ref Frames
Format settings, CABAC : Yes
Format settings, Reference : 9 frames
Codec ID : V_MPEG4/ISO/AVC
Duration : 1 h 24 min
Bit rate : 7 200 kb/s
Width : 1 192 pixels
Height : 720 pixels
Display aspect ratio : 5:3
Frame rate mode : Constant
Frame rate : 23.976 (24000/1001) FPS
Color space : YUV
Chroma subsampling : 4:2:0
Bit depth : 8 bits
Scan type : Progressive
Bits/(Pixel*Frame) : 0.350
Stream size : 4.22 GiB (85%)
Title : Slow West [2015]
Writing library : core 142 r2431+42 c69a006 tMod [[email protected]:2:0 X86_64]
Encoding settings : cabac=1 / ref=9 / deblock=1:-3:-3 / analyse=0x3:0x133 / me=umh / subme=11 / psy=1 / fade_compensate=0.00 / psy_rd=1.10:0.00 / mixed_ref=1 / me_range=48 / chroma_me=1 / trellis=2 / 8x8dct=1 / cqm=0 / deadzone=21,11 / fast_pskip=0 / chroma_qp_offset=-2 / threads=18 / lookahead_threads=4 / sliced_threads=0 / nr=0 / decimate=1 / interlaced=0 / bluray_compat=0 / constrained_intra=0 / fgo=0 / bframes=10 / b_pyramid=2 / b_adapt=2 / b_bias=0 / direct=3 / weightb=1 / open_gop=0 / weightp=2 / keyint=250 / keyint_min=23 / scenecut=40 / intra_refresh=0 / rc_lookahead=40 / rc=2pass / mbtree=0 / bitrate=7200 / ratetol=1.0 / qcomp=0.65 / qpmin=0:0:0 / qpmax=69:69:69 / qpstep=4 / cplxblur=20.0 / qblur=0.5 / vbv_maxrate=62500 / vbv_bufsize=78125 / nal_hrd=none / filler=0 / ip_ratio=1.20 / pb_ratio=1.10 / aq=3:0.75 / aq-sensitivity=10.00 / aq-factor=1.00:1.00:1.00 / aq2=0 / aq3=0
Language : English
Default : Yes
Forced : Yes

Audio #1
ID : 2
Format : AC-3
Format/Info : Audio Coding 3
Commercial name : Dolby Digital
Codec ID : A_AC3
Duration : 1 h 24 min
Bit rate mode : Constant
Bit rate : 640 kb/s
Channel(s) : 2 channels
Channel layout : L R
Sampling rate : 48.0 kHz
Frame rate : 31.250 FPS (1536 SPF)
Bit depth : 16 bits
Compression mode : Lossy
Stream size : 385 MiB (8%)
Title : AniUA MVO
Language : Ukrainian
Service kind : Complete Main
Default : Yes
Forced : Yes

Audio #2
ID : 3
Format : AC-3
Format/Info : Audio Coding 3
Commercial name : Dolby Digital
Codec ID : A_AC3
Duration : 1 h 24 min
Bit rate mode : Constant
Bit rate : 640 kb/s
Channel(s) : 6 channels
Channel layout : L R C LFE Ls Rs
Sampling rate : 48.0 kHz
Frame rate : 31.250 FPS (1536 SPF)
Bit depth : 16 bits
Compression mode : Lossy
Stream size : 385 MiB (8%)
Title : Original
Language : English
Service kind : Complete Main
Default : No
Forced : No

Menu
00:00:00.000 : en:00:00:00.000
00:04:55.128 : en:00:04:55.128
00:10:24.165 : en:00:10:24.165
00:14:35.541 : en:00:14:35.541
00:19:08.397 : en:00:19:08.397
00:25:29.236 : en:00:25:29.236
00:29:17.756 : en:00:29:17.756
00:35:17.282 : en:00:35:17.282
00:39:36.291 : en:00:39:36.291
00:45:26.641 : en:00:45:26.641
00:51:45.436 : en:00:51:45.436
00:55:14.186 : en:00:55:14.186
01:01:43.909 : en:01:01:43.909
01:07:38.596 : en:01:07:38.596
01:10:55.960 : en:01:10:55.960
01:18:29.330 : en:01:18:29.330



Озвучено за фінансової підтримки NemoInFire


Джерело озвучення та релізу: AniUA


Авторський реліз (завантажувати можна без реєстрації)
 Трекер:    Зареєстрований   

Завантажити / скачати фільм українською



відео для новачків



 Зареєстрований:   2019-11-29 22:20
 Розмір:   4.98 GB 
 Оцінка фільму:   9.5/10 (Голосів: 13)
   
Інші релізи
taksist 
VIP


З нами з: 10.12.12
Востаннє: 13.12.19
Повідомлень: 284

2019-11-30 08:36  
дуже сподобався, кому цікава ота гарна мелодія - Jed Kurzel, London Contemporary Orchestra - Jay's Theme.
+380954897458 
VIP


З нами з: 02.06.17
Востаннє: 14.12.19
Повідомлень: 534

2019-11-30 15:41  
Класний фільм. Мені теж сподобався. Здатен втамувати голод по вестернах. Їх зараз дуже мало вартісних виходить, тому кожна цікава стрічка цього жанру є вельми цінною.
Arch Enemy 
VIP


З нами з: 30.08.12
Востаннє: 14.12.19
Повідомлень: 1751

2019-11-30 19:32  
+380954897458 написано:
Класний фільм. Мені теж сподобався. Здатен втамувати голод по вестернах. Їх зараз дуже мало вартісних виходить, тому кожна цікава стрічка цього жанру є вельми цінною.

Скоро від нас буде ще одна: Брати Сістерс / The Sisters Brothers (2018)

Ваш часовий пояс: GMT + 2 Години

Нова тема   Відповісти