Ясновидець (Сезон 4) / Psych (Season 4) (2009-2010) 720p Ukr/Eng

Нові коментарі

Нова тема   Відповісти
Автор Повідомлення
Anonymous 







2019-11-29 15:56  
Ясновидець (Сезон 4) / Psych (Season 4) (2009-2010) 720p Ukr/Eng






Жанр: комедія, кримінальний, детектив
Країна: США



Кінокомпанія: USA Network
Актори: Джеймс Родай, Дьюлі Хілл, Меггі Лоусон, Тімоті Омандсон, Кірстен Нелсон.

Сюжет:
Головний герой Шон Спенсер під час перегляду новин дізнається хто пограбував магазин і повідомляє про це поліції. Прийшовши до відділку за винагородою копи йому не вірять і думають, що він був спільником. Тут Шону доводиться вдати ніби він ясновидець, щоб його не заарештували, але насправді ніяких паранормальних здібностей в нього нема. У дитинстві його батько поліцейський навчив помічати різні деталі на які звичайні люди не звертають увагу і навчив детективним навичкам. Надалі він зі своїм другом Ґасом відкриють приватне детективне агентство та будуть вдавати ніби він дійсно ясновидець та допомагати поліції розкривати справи.


Тривалість: 1 серія: 45хв (цілком серій: 16 з 16)
Перелік серій
1 Fri Aug 07, 2009 Extradition: British Columbia
2 Fri Aug 14, 2009 He Dead
3 Fri Aug 21, 2009 High Noon-ish
4 Fri Aug 28, 2009 The Devil's in the Details...And in the Upstairs Bedroom
5 Fri Sep 11, 2009 Shawn Has the Yips
6 Fri Sep 18, 2009 Bollywood Homicide
7 Fri Sep 25, 2009 High Top Fade Out
8 Fri Oct 09, 2009 Let's Get Hairy
9 Fri Oct 16, 2009 Shawn Takes a Shot in the Dark
10 Wed Jan 27, 2010 You Can't Handle This Episode
11 Wed Feb 03, 2010 Thrill Seekers & Hell Raisers
12 Wed Feb 10, 2010 A Very Juliet Episode
13 Wed Feb 17, 2010 Death Is in the Air
14 Wed Feb 24, 2010 Think Tank
15 Wed Mar 03, 2010 The Head, the Tail, the Whole Damn Episode
16 Wed Mar 10, 2010 Mr. Yin Presents
Якість: 720p
Відео:
кодек:
розмір кадру: 1280 х 720
бітрейт: 4100 кб/с

Аудіо # 1:
мова: українська
переклад: багатоголосий закадровий
кодек: 2.0
бітрейт: 192 кб/с

Джерело озвучення:


Аудіо # 2:
мова: англійська
переклад: оригінал
кодек: AC-3 5.1
бітрейт: 384
Info
Video
ID : 1
Format : AVC
Format/Info : Advanced Video Codec
Format profile : [email protected]
Format settings : 2 Ref Frames
Format settings, CABAC : No
Format settings, Reference : 2 frames
Codec ID : V_MPEG4/ISO/AVC
Duration : 42 min 49 s
Bit rate : 4 139 kb/s
Width : 1 280 pixels
Height : 720 pixels
Display aspect ratio : 16:9
Frame rate mode : Constant
Frame rate : 23.976 (23976/1000) FPS
Color space : YUV
Chroma subsampling : 4:2:0
Bit depth : 8 bits
Scan type : Progressive
Bits/(Pixel*Frame) : 0.187
Stream size : 1.24 GiB (88%)
Language : English
Default : Yes
Forced : No
Color range : Limited
Color primaries : BT.709
Transfer characteristics : BT.709
Matrix coefficients : BT.709

Audio #1
ID : 2
Format : AC-3
Format/Info : Audio Coding 3
Commercial name : Dolby Digital
Codec ID : A_AC3
Duration : 42 min 49 s
Bit rate mode : Constant
Bit rate : 192 kb/s
Channel(s) : 2 channels
Channel layout : L R
Sampling rate : 48.0 kHz
Frame rate : 31.250 FPS (1536 SPF)
Compression mode : Lossy
Stream size : 58.8 MiB (4%)
Title : MVO - Indigo TV
Language : Ukrainian
Service kind : Complete Main
Default : Yes
Forced : No

Audio #2
ID : 3
Format : AC-3
Format/Info : Audio Coding 3
Commercial name : Dolby Digital
Codec ID : A_AC3
Duration : 42 min 49 s
Bit rate mode : Constant
Bit rate : 384 kb/s
Channel(s) : 6 channels
Channel layout : L R C LFE Ls Rs
Sampling rate : 48.0 kHz
Frame rate : 31.250 FPS (1536 SPF)
Compression mode : Lossy
Stream size : 118 MiB (8%)
Language : English
Service kind : Complete Main
Default : No
Forced : No
скріншоти












Подяка: пану, що побажав залишитися анонімним за запис сирих доріжок.
Джерело:
Особиста оцінка: 10 - без зайвих вагань рекомендую всім!


Бронзовий реліз (на рейтинг впливає 75% завантаженого)
 Трекер:    Зареєстрований   

Завантажити / скачати серіал українською



відео для новачків



 Зареєстрований:   2019-11-29 15:56
 Розмір:   22.23 GB 
 Оцінка серіалу:   9.8/10 (Голосів: 9)
   
Andrey-2005 
Свій


З нами з: 13.05.16
Востаннє: 02.12.20
Повідомлень: 55

2019-12-08 17:08  
Дякую за серіал! 5-8 сезони плануються?
Anonymous 







2019-12-12 20:31  
Andrey-2005
звук є тільки до 6 сезонів, і те у 6 сезоні показали тільки 8 серій. усі вже на трекері, якщо канал колись відновить показ то я продовжу роботу.

Ваш часовий пояс: GMT + 2 Години

Нова тема   Відповісти