Ліга Європи 2019-2020 / Група I / 5- тур / Олександрія - Вольфсбург/ Футбол 2 HD (28.11.2019)

Нові коментарі

Нова тема   Відповісти
Останній раз роздавалося antik_2008 (2019-12-21)
Автор Повідомлення
Anonymous 







2019-11-29 02:50  
Ліга Європи 2019-2020 / Група I / 5- тур / Олександрія - Вольфсбург/ Футбол 2 HD (28.11.2019)

Ліга Європи 2019-2020 / Група I / 5- тур / Олександрія - Вольфсбург/ Футбол 2 HD (28.11.2019)


Телеканал: Футбол 2 HD
Опис:
Ліга Європи 2019-2020 / Група I / 5- тур / Олександрія - Вольфсбург
Тривалість:
01:44:14
Якість:
Відео:
кодек:
розмір кадру: 1280x720
бітрейт: ~3200 кб/с

Аудіо:
мова: українська
переклад: одноголосий закадровий | Андрій Столярчук |
кодек: 2.0
бітрейт: 128 кб/с
Склади:



Скріншоти


Info
Код:
General
Complete name                            : Olexandriya_vs_Wolfsburg (29.11.2019) .
Format                                   :
Format version                           : Version 4
File size                                : 2.50 GiB
Duration                                 : 1 h 44 min
Overall bit rate                         : 3 434 kb/s
Writing application                      : VideoReDo (Lavf56.25.101)
Writing library                          : VideoReDo (Lavf56.25.101)

Video
ID                                       : 1
Format                                   : AVC
Format/Info                              : Advanced Video Codec
Format profile                           : [email protected]
Format settings                          : CABAC / 4 Ref Frames
Format settings, CABAC                   : Yes
Format settings, RefFrames               : 4 frames
Codec ID                                 : V_MPEG4/ISO/AVC
Duration                                 : 1 h 44 min
Bit rate                                 : 3 237 kb/s
Width                                    : 1 280 pixels
Height                                   : 720 pixels
Display aspect ratio                     : 16:9
Frame rate mode                          : Constant
Frame rate                               : 50.000 FPS
Color space                              : YUV
Chroma subsampling                       : 4:2:0
Bit depth                                : 8 bits
Scan type                                : Progressive
Bits/(Pixel*Frame)                       : 0.070
Stream size                              : 2.36 GiB (94%)
Default                                  : No
Forced                                   : No

Audio
ID                                       : 2
Format                                   : AC-3
Format/Info                              : Audio Coding 3
Commercial name                          : Dolby Digital
Codec ID                                 : A_AC3
Duration                                 : 1 h 44 min
Bit rate mode                            : Constant
Bit rate                                 : 128 kb/s
Channel(s)                               : 2 channels
Channel layout                           : L R
Sampling rate                            : 48.0 kHz
Frame rate                               : 31.250 FPS (1536 SPF)
Bit depth                                : 16 bits
Compression mode                         : Lossy
Stream size                              : 95.4 MiB (4%)
Language                                 : Ukrainian
Service kind                             : Complete Main
Default                                  : Yes
Forced                                   : No
Джерело:
Особиста оцінка: 6 - третій сорт - не брак


Золотий реліз (завантажене не впливає на рейтинг)
 Трекер:    Зареєстрований   

Завантажити / скачати торрент



відео для новачків



 Зареєстрований:   2019-11-29 02:50
 Розмір:   2.5 GB 
 Оцінка:   9.5/10 (Голосів: 2)
   
Ваш часовий пояс: GMT + 2 Години

Нова тема   Відповісти