Ідеальне вбивство / Досконале вбивство / A Perfect Murder (1998) Remux 1080p 2xUkr/Eng | Sub Eng

Нові коментарі

Нова тема   Відповісти
Автор Повідомлення
MakRA 
VIP


З нами з: 11.11.18
Востаннє: 01.10.20
Повідомлень: 1120

2019-11-28 01:21  
Ідеальне вбивство / Досконале вбивство / A Perfect Murder (1998) Remux 1080p 2xUkr/Eng | Sub Eng

Ідеальне вбивство / Досконале вбивство / A Perfect Murder (1998) Remux 1080p 2xUkr/Eng | Sub Eng


Жанр: трилер, кримінальний, драма
Країна: США



Кінокомпанія: Warner Bros., Kopelson Entertainment
Режисер: Ендрю Девіс [Andrew Davis]
Актори: Майкл Даґлес [Michael Douglas], Ґвінет Пелтроу [Gwyneth Paltrow], Віґо Мортенсен [Viggo Mortensen], Девід Суше [David Suchet], Саріта Чоудрі [Sarita Choudhury], Майкл П. Моран [Michael P. Moran], Новела Нельсон [Novella Nelson], Констанс Тауерс [Constance Towers], Вілл Ліман [Will Lyman], Мейв МакҐвайр [Maeve McGuire], Стівен Сінгер [Stephen Singer]

Сюжет:
Процвітаючий бізнесмен Стівен Тейлор з серйозними труднощами на роботі, які загрожують йому розоренням, дізнається, що дружина Емілі, жінка дуже багата, зраджує йому з художником Девідом.
Навівши довідки, він дізнається, що Девід зовсім не художник, а шлюбний аферист з солідним "послужним" списком та декількома відсидками у в'язниці. Зустрівшись з Девідом, Стівен пропонує йому 500 тисяч доларів за вбивство власної дружини...
Фільм знятий за п'єсою Фредеріка Нотта. У 1954 році за цим же твором Альфред Гічкок поставив однойменну картину «У випадку вбивства набирайте „М“»

Цікаве про фільм та зйомки:

-Касові збори фільму в США склали $67 638 368, а у світі $60 400 000.
-Слоган фільму — «Чоловік. Дружина. Коханець. Небезпечна зрада. Ідеальне вбивство.» (англ. Husband. Wife. Lover. A Dangerous Affair. A Perfect Murder.)
-Фільм є ремейком стрічки Альфреда Гічкока «У випадку вбивства набирайте „М“». Назва «Ідеальне вбивство» є цитатою з цього ж фільму.
-Картини, виставлені в майстерні Девіда Шоу, намалював сам Вігго Мортенсен.
-Гвінет Пелтроу розповідала в інтерв'ю, що дуже хвилювалася під час зйомок любовних сцен, і Вігго Мортенсен, щоб заспокоїти її, співав актрисі іспанські балади.
-У тому ж році Вігго Мортенсен знявся ще в одному рімейку фільму Альфреда Гічкока — «Психоз». У обох картинах він грає коханця головної героїні і в них є злочин, пов'язаний з однаковою сумою — 400 тис. доларів.

Нагороди та номінації:

Перемога
1999-ASCAP Award
Найкращий кінокомпозитор в комерційно успішних фільмах [Джеймс Ньютон Ховард]
1999-Blockbuster Entertainment Award
Найкраща актриса в триллері [Гвінет Пелтроу в ролі Емілі Тейлор]

Номінація
1999-Blockbuster Entertainment Award
Найкращий актор в триллері [Майкл Дуглас в ріли Стівена Тейлора]
1999-Blockbuster Entertainment Award
Найкращий актор другого плану в триллері [Вігго Мортенсен в ріли Девіда Шоу]
1999-Golden Trailer
Найкращий триллер чи фільм жахів.


Тривалість: 01:47:26
Якість: Remux 1080p
Відео:
кодек:
розмір кадру: 1920 х 1080
бітрейт: 18,5 Mб/с

Аудіо # 1:
мова: українська
переклад: багатоголосий закадровий | студія "Так Треба Продакшн"
кодек: 5.1
бітрейт: 448 кб/с
Про озвучення:
Ролі озвучили:Майкл Даґлес — Владислав Пупков, Віґо Мортенсен — Олесь Гімбаржевський і Людмила Ардельян.
Аудіо # 2:
мова: українська
переклад: багатоголосий закадровий | студія "TB+" на замовлення ICTV
кодек: 2.0 (стерео)
бітрейт: 192 кб/с
примітка: з нового запису POMEO 22.02.2015 (SAT)
Про озвучення:
Ролі озвучили:Майкл Даґлес — Олесь Гімбаржевський, Віґо Мортенсен — Юрій Кудрявець і Людмила Ардельян.
Аудіо # 3:
мова: українська
переклад: багатоголосий закадровий | студія "TB+" на замовлення ICTV
кодек: 5.1
бітрейт: 448 кб/с
примітка: озвучка, ідентична попередній, очевидно перероблений HDClub'ом звук з старого релізу Romario_O (2010)
Про озвучення:
Ролі озвучили:Майкл Даґлес — Олесь Гімбаржевський, Віґо Мортенсен — Юрій Кудрявець і Людмила Ардельян.
Аудіо # 4:
мова: англійська
переклад: оригінал
кодек: -HD MA 5.1
бітрейт: 3577 кб/с

Аудіо # 5:
мова: англійська
переклад: оригінал
кодек: 5.1
бітрейт: 640 кб/с

Аудіо # 6:
мова: англійська
переклад: коментарі режисера Ендрю Девіса, сценариста Патріка Келлі та актора Майкла Даґлеса
кодек: 2.0
бітрейт: 192 кб/с

Субтитри # 1: (Full)
мова: англійська
тип: програмні (м'які)
формат: *.srt

Субтитри # 2: (SDH)
мова: англійська
тип: програмні (м'які)
формат: *.srt

Збережено оригінальні розділи, як на Blu-ray.
Info
General
Unique ID : 110749012361952952279046596689702995748 (0x53517BE24E9313CF524AA6BF7270C724)
Complete name : I:\+ Фільми в HD\трилер, детектив\A Perfect Murder (1998) Remux 1080p 2xUkrEng Sub Eng [Hurtom].
Format :
Format version : Version 4
File size : 18.0 GiB
Duration : 1 h 47 min
Overall bit rate mode : Variable
Overall bit rate : 23.9 Mb/s
Movie name : Ідеальне вбивство / Досконале вбивство / A Perfect Murder (1998) Remux 1080p 2xUkr/Eng | Sub Eng [Hurtom]
Encoded date : UTC 2019-11-27 19:19:11
Writing application : v25.0.0 ('Prog Noir') 64-bit
Writing library : libebml v1.3.6 + v1.4.9
Cover : Yes
Attachments : cover.jpg

Video
ID : 1
Format : AVC
Format/Info : Advanced Video Codec
Format profile : [email protected]
Format settings : CABAC / 2 Ref Frames
Format settings, CABAC : Yes
Format settings, Reference fra : 2 frames
Codec ID : V_MPEG4/ISO/AVC
Duration : 1 h 47 min
Bit rate mode : Variable
Bit rate : 18.5 Mb/s
Width : 1 920 pixels
Height : 1 080 pixels
Display aspect ratio : 16:9
Frame rate mode : Constant
Frame rate : 23.976 (24000/1001) FPS
Color space : YUV
Chroma subsampling : 4:2:0
Bit depth : 8 bits
Scan type : Progressive
Bits/(Pixel*Frame) : 0.371
Stream size : 13.8 GiB (77%)
Title : A Perfect Murder (1998) Remux 1080p 2xUkr/Eng | Sub Eng [Hurtom]
Language : Ukrainian
Default : Yes
Forced : Yes

Audio #1
ID : 2
Format : AC-3
Format/Info : Audio Coding 3
Commercial name : Dolby Digital
Codec ID : A_AC3
Duration : 1 h 47 min
Bit rate mode : Constant
Bit rate : 448 kb/s
Channel(s) : 6 channels
Channel layout : L R C LFE Ls Rs
Sampling rate : 48.0 kHz
Frame rate : 31.250 FPS (1536 SPF)
Bit depth : 16 bits
Compression mode : Lossy
Stream size : 344 MiB (2%)
Title : MVO [НТН] 5.1 | студія "Так Треба Продакшн" [Hurtom-Romario_O,HDClub-madoff]
Language : Ukrainian
Service kind : Complete Main
Default : Yes
Forced : Yes

Audio #2
ID : 3
Format : AC-3
Format/Info : Audio Coding 3
Commercial name : Dolby Digital
Codec ID : A_AC3
Duration : 1 h 47 min
Bit rate mode : Constant
Bit rate : 192 kb/s
Channel(s) : 2 channels
Channel layout : L R
Sampling rate : 48.0 kHz
Frame rate : 31.250 FPS (1536 SPF)
Bit depth : 16 bits
Compression mode : Lossy
Stream size : 148 MiB (1%)
Title : MVO [ICTV] 2.0 | студія "TB+" [sat 2015] [Hurtom-igor911,POMEO]
Language : Ukrainian
Service kind : Complete Main
Default : No
Forced : No

Audio #3
ID : 4
Format : AC-3
Format/Info : Audio Coding 3
Commercial name : Dolby Digital
Codec ID : A_AC3
Duration : 1 h 47 min
Bit rate mode : Constant
Bit rate : 448 kb/s
Channel(s) : 6 channels
Channel layout : L R C LFE Ls Rs
Sampling rate : 48.0 kHz
Frame rate : 31.250 FPS (1536 SPF)
Bit depth : 16 bits
Compression mode : Lossy
Stream size : 344 MiB (2%)
Title : MVO [ICTV] 5.1 | студія "TB+" [2010] [Hurtom--Romario_O,MechanicCDRR,HDClub-madoff]
Language : Ukrainian
Service kind : Complete Main
Default : No
Forced : No

Audio #4
ID : 5
Format : XLL
Format/Info : Digital Theater Systems
Commercial name : -HD Master Audio
Codec ID : A_DTS
Duration : 1 h 47 min
Bit rate mode : Variable
Bit rate : 3 577 kb/s
Channel(s) : 6 channels
Channel layout : C L R Ls Rs LFE
Sampling rate : 48.0 kHz
Frame rate : 93.750 FPS (512 SPF)
Bit depth : 24 bits
Compression mode : Lossless
Stream size : 2.68 GiB (15%)
Title : Original -HD MA 5.1
Language : English
Default : No
Forced : No

Audio #5
ID : 6
Format : AC-3
Format/Info : Audio Coding 3
Commercial name : Dolby Digital
Codec ID : A_AC3
Duration : 1 h 47 min
Bit rate mode : Constant
Bit rate : 640 kb/s
Channel(s) : 6 channels
Channel layout : L R C LFE Ls Rs
Sampling rate : 48.0 kHz
Frame rate : 31.250 FPS (1536 SPF)
Bit depth : 16 bits
Compression mode : Lossy
Stream size : 492 MiB (3%)
Title : Original 5.1
Language : English
Service kind : Complete Main
Default : No
Forced : No

Audio #6
ID : 7
Format : AC-3
Format/Info : Audio Coding 3
Commercial name : Dolby Digital
Codec ID : A_AC3
Duration : 1 h 47 min
Bit rate mode : Constant
Bit rate : 192 kb/s
Channel(s) : 2 channels
Channel layout : L R
Sampling rate : 48.0 kHz
Frame rate : 31.250 FPS (1536 SPF)
Bit depth : 16 bits
Compression mode : Lossy
Stream size : 148 MiB (1%)
Title : Original 2.0 | Commentary A.Davis, P.Kelly, M.Douglas
Language : English
Service kind : Complete Main
Default : No
Forced : No

Text #1
ID : 8
Format : UTF-8
Codec ID : S_TEXT/UTF8
Codec ID/Info : UTF-8 Plain Text
Duration : 1 h 41 min
Bit rate : 39 b/s
Count of elements : 988
Stream size : 29.8 KiB (0%)
Title : Eng (Full)
Language : English
Default : No
Forced : No

Text #2
ID : 9
Format : UTF-8
Codec ID : S_TEXT/UTF8
Codec ID/Info : UTF-8 Plain Text
Duration : 1 h 44 min
Bit rate : 44 b/s
Count of elements : 1066
Stream size : 34.0 KiB (0%)
Title : Eng (SDH)
Language : English
Default : No
Forced : No

Menu
00:00:00.000 : en:00:00:00.000
00:02:14.009 : en:00:02:14.009
00:08:09.864 : en:00:08:09.864
00:10:53.820 : en:00:10:53.820
00:13:18.339 : en:00:13:18.339
00:19:59.657 : en:00:19:59.657
00:22:32.226 : en:00:22:32.226
00:27:28.897 : en:00:27:28.897
00:32:49.676 : en:00:32:49.676
00:37:12.480 : en:00:37:12.480
00:39:03.007 : en:00:39:03.007
00:41:31.823 : en:00:41:31.823
00:45:06.078 : en:00:45:06.078
00:48:25.903 : en:00:48:25.903
00:51:29.086 : en:00:51:29.086
00:55:51.139 : en:00:55:51.139
00:58:50.944 : en:00:58:50.944
01:03:31.266 : en:01:03:31.266
01:06:28.818 : en:01:06:28.818
01:09:44.389 : en:01:09:44.389
01:10:55.501 : en:01:10:55.501
01:14:41.227 : en:01:14:41.227
01:18:36.503 : en:01:18:36.503
01:22:09.424 : en:01:22:09.424
01:28:31.473 : en:01:28:31.473
01:31:09.339 : en:01:31:09.339
01:35:01.696 : en:01:35:01.696
01:38:56.097 : en:01:38:56.097
01:40:49.043 : en:01:40:49.043
01:42:20.301 : en:01:42:20.301
Скріншоти
Джерело: &
Особиста оцінка: 9 - давно не бачив настільки якісне кіно
Висловлюю подяки:
за українські доріжки - 1) п. Romario_O, п. madoff (HDClub); 2) п. igor911 - зведення, п. POMEO - запис з ТБ; 3) п. Romario_O, п. MechanicCDRR, п. madoff (HDClub);
за українізовані постери - п. DemsOFF, п. Boravl;
за фільмографії акторів та інформація про озвучення - п. Віктор та п. Neo777


Золотий реліз (завантажене не впливає на рейтинг)
 Трекер:    Зареєстрований   

Завантажити / скачати фільм українською



відео для новачків



 Зареєстрований:   2019-11-28 01:21
 Розмір:   17.98 GB 
 Оцінка фільму:   10/10 (Голосів: 6)
   
Ваш часовий пояс: GMT + 2 Години

Нова тема   Відповісти