Взяти живим або мертвим / Wanted: Dead or Alive (1986) Remux 1080p 2xUkr/Eng | Sub Eng

Нові коментарі

Нова тема   Відповісти
Останній раз роздавалося NSCOriginal (2020-09-21)
Автор Повідомлення
MakRA 
VIP


З нами з: 11.11.18
Востаннє: 21.09.20
Повідомлень: 1119

2019-11-28 00:26  
Взяти живим або мертвим / Wanted: Dead or Alive (1986) Remux 1080p 2xUkr/Eng | Sub Eng

Взяти живим або мертвим / Wanted: Dead or Alive (1986) Remux 1080p 2xUkr/Eng | Sub Eng


Жанр: екшн, кримінальний, драма
Країна: США



Кінокомпанія: New World Pictures, Balcor Film Investors
Режисер: Гарі Шерман [Gary Sherman]
Актори: Рутґер Гауер [Rutger Hauer], Джин Сіммонс [Gene Simmons], Роберт Гійом [Robert Guillaume], Мел Гарріс [Mel Harris], Вільям Русс [William Russ], Сюзан МакДональд [Susan MacDonald], Джеррі Хардін [Jerry Hardin], Хю Гіллам [Hugh Gillam]

Сюжет:
Колишній агент ЦРУ Нік Рендалл живе в Лос-Анджелесі і заробляє тим, що ловить злочинців за винагороду. У місті відбувається серія кривавих вибухів, відповідальний за які терорист Малак Аль Рахім. До Рендалла звертається колишній колега Денні Квінц, який просить допомогти. Ніку пропонують великий гонорар за упіймання Малака. Він погоджується, не підозрюючи, що його очікує далі...


Тривалість: 01:46:29
Якість: Remux 1080p
Відео:
кодек:
розмір кадру: 1920 х 1080
бітрейт: 23,4 Mб/с

Аудіо # 1:
мова: українська
переклад: двоголосий закадровий
кодек: 2.0
бітрейт: 192 кб/с

Аудіо # 2:
мова: українська
переклад: двоголосий закадровий
кодек: 2.0
бітрейт: 192 кб/с

Аудіо # 3:
мова: англійська
переклад: оригінал
кодек: -HD MA 2.0
бітрейт: 1586 кб/с

Аудіо # 4:
мова: англійська
переклад: оригінал
кодек: 2.0
бітрейт: 192 кб/с

Субтитри:
мова: англійська
тип: програмні (м'які)
формат: *.srt

Збережено оригінальні розділи, як на Blu-ray.
Info
General
Unique ID : 340094894192321353945467992976690874567 (0xFFDBE4E17F6183072A8E5AC340CD88C7)
Complete name : I:\+Фільмографії- Рутгер Гауер [Rutger Oelsen Hauer]\Wanted Dead or Alive (1986) Remux 1080p 2xUkrEng Sub Eng [Hurtom].
Format :
Format version : Version 4
File size : 19.0 GiB
Duration : 1 h 46 min
Overall bit rate mode : Variable
Overall bit rate : 25.5 Mb/s
Movie name : Взяти живим або мертвим / Wanted: Dead or Alive (1986) Remux 1080p 2xUkr/Eng | Sub Eng [Hurtom]
Encoded date : UTC 2019-11-27 21:11:30
Writing application : v25.0.0 ('Prog Noir') 64-bit
Writing library : libebml v1.3.6 + v1.4.9
Cover : Yes
Attachments : cover.jpg

Video
ID : 1
Format : AVC
Format/Info : Advanced Video Codec
Format profile : [email protected]
Format settings : CABAC / 4 Ref Frames
Format settings, CABAC : Yes
Format settings, Reference fra : 4 frames
Codec ID : V_MPEG4/ISO/AVC
Duration : 1 h 46 min
Bit rate mode : Variable
Bit rate : 23.4 Mb/s
Maximum bit rate : 35.0 Mb/s
Width : 1 920 pixels
Height : 1 080 pixels
Display aspect ratio : 16:9
Frame rate mode : Constant
Frame rate : 23.976 (24000/1001) FPS
Standard : Component
Color space : YUV
Chroma subsampling : 4:2:0
Bit depth : 8 bits
Scan type : Progressive
Bits/(Pixel*Frame) : 0.470
Stream size : 17.4 GiB (92%)
Title : Wanted: Dead or Alive (1986) Remux 1080p 2xUkr/Eng | Sub Eng [Hurtom]
Language : Ukrainian
Default : Yes
Forced : Yes
Color range : Limited
Color primaries : BT.709
Transfer characteristics : BT.709
Matrix coefficients : BT.709

Audio #1
ID : 2
Format : AC-3
Format/Info : Audio Coding 3
Commercial name : Dolby Digital
Codec ID : A_AC3
Duration : 1 h 46 min
Bit rate mode : Constant
Bit rate : 192 kb/s
Channel(s) : 2 channels
Channel layout : L R
Sampling rate : 48.0 kHz
Frame rate : 31.250 FPS (1536 SPF)
Bit depth : 16 bits
Compression mode : Lossy
Stream size : 146 MiB (1%)
Title : DVO [КІНО] 2.0
Language : Ukrainian
Service kind : Complete Main
Default : Yes
Forced : Yes

Audio #2
ID : 3
Format : AC-3
Format/Info : Audio Coding 3
Commercial name : Dolby Digital
Codec ID : A_AC3
Duration : 1 h 46 min
Bit rate mode : Constant
Bit rate : 192 kb/s
Channel(s) : 2 channels
Channel layout : L R
Sampling rate : 48.0 kHz
Frame rate : 31.250 FPS (1536 SPF)
Bit depth : 16 bits
Compression mode : Lossy
Stream size : 146 MiB (1%)
Title : DVO [НТН] 2.0
Language : Ukrainian
Service kind : Complete Main
Default : No
Forced : No

Audio #3
ID : 4
Format : XLL
Format/Info : Digital Theater Systems
Commercial name : -HD Master Audio
Codec ID : A_DTS
Duration : 1 h 46 min
Bit rate mode : Variable
Bit rate : 1 586 kb/s
Channel(s) : 2 channels
Sampling rate : 48.0 kHz
Frame rate : 93.750 FPS (512 SPF)
Bit depth : 16 bits
Compression mode : Lossless
Stream size : 1.18 GiB (6%)
Title : Original -HD MA 2.0
Language : English
Default : No
Forced : No

Audio #4
ID : 5
Format : AC-3
Format/Info : Audio Coding 3
Commercial name : Dolby Digital
Codec ID : A_AC3
Duration : 1 h 46 min
Bit rate mode : Constant
Bit rate : 192 kb/s
Channel(s) : 2 channels
Channel layout : L R
Sampling rate : 48.0 kHz
Frame rate : 31.250 FPS (1536 SPF)
Bit depth : 16 bits
Compression mode : Lossy
Stream size : 146 MiB (1%)
Title : Original 2.0
Language : English
Service kind : Complete Main
Default : No
Forced : No

Text
ID : 6
Format : UTF-8
Codec ID : S_TEXT/UTF8
Codec ID/Info : UTF-8 Plain Text
Duration : 1 h 41 min
Bit rate : 35 b/s
Count of elements : 800
Stream size : 26.3 KiB (0%)
Title : Eng (Full)
Language : English
Default : No
Forced : No

Menu
00:00:00.000 : :Chapter 01
00:08:21.500 : :Chapter 02
00:17:59.912 : :Chapter 03
00:26:58.157 : :Chapter 04
00:35:23.371 : :Chapter 05
00:44:55.983 : :Chapter 06
00:51:43.556 : :Chapter 07
01:03:05.613 : :Chapter 08
01:13:33.367 : :Chapter 09
01:21:19.957 : :Chapter 10
01:30:19.831 : :Chapter 11
01:40:15.926 : :Chapter 12
01:46:28.546 : :Chapter 13
Скріншоти
Джерело: &
Висловлюю подяку п. urij546724 за зведення та п. Tanat13 за запис звуку з ТБ.
Особиста оцінка: 9 - давно не бачив настільки якісне кіно


Золотий реліз (завантажене не впливає на рейтинг)
 Трекер:    Зареєстрований   

Завантажити / скачати фільм українською



відео для новачків



 Зареєстрований:   2019-11-28 00:26
 Розмір:   19 GB 
 Оцінка фільму:   9.8/10 (Голосів: 6)
   
Ваш часовий пояс: GMT + 2 Години

Нова тема   Відповісти