Думками навиворiт / Inside Out (2015) 1080p H.265 Ukr/Eng | Sub Eng

Нові коментарі

Нова тема   Відповісти
Автор Повідомлення
Anonymous 







2019-11-27 22:20  
Думками навиворiт / Inside Out (2015) 1080p H.265 Ukr/Eng | Sub Eng

Думками навиворiт / Inside Out (2015) 1080p H.265 Ukr/Eng | Sub Eng


Жанр: анімація, пригодницький, комедія
Країна: США
Кінокомпанія: Pixar Animation Studios, Walt Disney Pictures
Режисер: Піт Доктер, Роналдо Дель Кармен
Ролі озвучують: Льюїс Блек, Мінді Кейлінґ, Білл Гейдер, Емі Полер, Філліс Сміт, Річард Кайнд, Кейтлін Діас, Даян Лейн, Кайл МакЛоклен, Пола Паундстон

Сюжет:
Райлі - звичайна 11-річна школярка, і, як у кожного з нас, її поведінку визначають п'ять базових емоцій: радість, страх, гнів, відраза і печаль. Емоції живуть у свідомості дівчинки і кожен день допомагають їй справлятися з проблемами, керуючи усіма її вчинками. До пори до часу емоції живуть дружно, але раптом виявляється, що Райлі і її батьків чекає переїзд з невеликого затишного містечка в галасливий і людний мегаполіс. Кожна з емоцій вважає, що саме вона краще інших знає, що потрібно робити в цій непростій ситуації, і в голові у дівчинки настає повна плутанина. Щоб налагодити життя у великому місті, освоїтися в новій школі і подружитися з однокласниками, емоціям Райлі належить знову навчитися працювати спільно.

Тривалість: 01:34:49
Якість: (Російський відеоряд)

Відео:
кодек: H.265 (HEVC)
розмір кадру: 1920 x 1080
бітрейт: 5 677 кб/с
бітова глибина: 10 біт

Увага! Перед завантаженням переконайтесь, що ваш пристрій відтворення (та/або ПЗ) підтримує H.265 (HEVC)

Аудіо # 1:
мова: українська
переклад: професійний дубльований
кодек: 5.1
бітрейт: 1510 кб/с

Аудіо # 2:
мова: англійська
переклад: оригінал
кодек: 5.1
бітрейт: 1510 кб/с

Субтитри # 1-3: (Full, SDH, SDH-Colored)
мова: англійська
тип: програмні (м'які)
формат: *.srt


Info
Код:
General
Unique ID                                : 213476343073049774521482979621447260395 (0xA09A0C53D689994DE5F049E49D61D8EB)
Complete name                            : Inside Out (2015) 1080p H.265 [UKR_ENG] [Hurtom].
Format                                   :
Format version                           : Version 4
File size                                : 5.76 GiB
Duration                                 : 1 h 34 min
Overall bit rate                         : 8 697 kb/s
Movie name                               : Думками навиворiт / Inside Out (2015)
Encoded date                             : UTC 2019-11-27 20:08:29
Writing application                      : v20.0.0 ('I Am The Sun') 64-bit
Writing library                          : libebml v1.3.5 + v1.4.8
Cover                                    : Yes
Attachments                              : Cover.jpg

Video
ID                                       : 1
Format                                   : HEVC
Format/Info                              : High Efficiency Video Coding
Format profile                           : Main [email protected]@High
Codec ID                                 : V_MPEGH/ISO/HEVC
Duration                                 : 1 h 34 min
Bit rate                                 : 5 677 kb/s
Width                                    : 1 920 pixels
Height                                   : 1 080 pixels
Display aspect ratio                     : 16:9
Frame rate mode                          : Constant
Frame rate                               : 23.976 (23976/1000) FPS
Original frame rate                      : 23.976 (24000/1001) FPS
Color space                              : YUV
Chroma subsampling                       : 4:2:0
Bit depth                                : 10 bits
Bits/(Pixel*Frame)                       : 0.114
Stream size                              : 3.76 GiB (65%)
Title                                    : Думками навиворiт / Inside Out (2015)
Writing library                          : x265 3.2.1+1-b5c86a64bbbe:[Windows][MSVC 1923][64 bit] 10bit
Encoding settings                        : cpuid=1111039 / frame-threads=3 / numa-pools=12 / wpp / no-pmode / no-pme / no-psnr / no-ssim / log-level=2 / input-csp=1 / input-res=1920x1080 / interlace=0 / total-frames=136418 / level-idc=41 / high-tier=1 / uhd-bd=0 / ref=5 / no-allow-non-conformance / no-repeat-headers / annexb / no-aud / no-hrd / info / hash=0 / no-temporal-layers / open-gop / min-keyint=23 / keyint=240 / gop-lookahead=0 / bframes=10 / b-adapt=2 / b-pyramid / bframe-bias=0 / rc-lookahead=60 / lookahead-slices=4 / scenecut=40 / radl=0 / no-splice / no-intra-refresh / ctu=32 / min-cu-size=8 / rect / amp / max-tu-size=32 / tu-inter-depth=4 / tu-intra-depth=4 / limit-tu=1 / rdoq-level=2 / dynamic-rd=0.00 / no-ssim-rd / signhide / no-tskip / nr-intra=0 / nr-inter=0 / no-constrained-intra / no-strong-intra-smoothing / max-merge=4 / limit-refs=2 / limit-modes / me=3 / subme=7 / merange=57 / temporal-mvp / no-hme / weightp / weightb / no-analyze-src-pics / deblock=-3:-3 / no-sao / no-sao-non-deblock / rd=6 / selective-sao=0 / no-early-skip / no-rskip / no-fast-intra / no-tskip-fast / no-cu-lossless / no-b-intra / no-splitrd-skip / rdpenalty=0 / psy-rd=2.00 / psy-rdoq=1.00 / no-rd-refine / no-lossless / cbqpoffs=0 / crqpoffs=0 / rc=crf / crf=20.0 / qcomp=0.65 / qpstep=4 / stats-write=0 / stats-read=0 / vbv-maxrate=50000 / vbv-bufsize=50000 / vbv-init=0.9 / crf-max=0.0 / crf-min=0.0 / ipratio=1.40 / pbratio=1.30 / aq-mode=1 / aq-strength=1.00 / no-cutree / zone-count=0 / no-strict-cbr / qg-size=32 / no-rc-grain / qpmax=69 / qpmin=0 / no-const-vbv / sar=1 / overscan=0 / videoformat=5 / range=0 / colorprim=1 / transfer=1 / colormatrix=1 / chromaloc=0 / display-window=0 / cll=0,0 / min-luma=0 / max-luma=1023 / log2-max-poc-lsb=8 / vui-timing-info / vui-hrd-info / slices=1 / no-opt-qp-pps / no-opt-ref-list-length-pps / no-multi-pass-opt-rps / scenecut-bias=0.05 / no-opt-cu-delta-qp / no-aq-motion / no-hdr / no-hdr-opt / no-dhdr10-opt / no-idr-recovery-sei / analysis-reuse-level=5 / scale-factor=0 / refine-intra=0 / refine-inter=0 / refine-mv=1 / refine-ctu-distortion=0 / no-limit-sao / ctu-info=0 / no-lowpass-dct / refine-analysis-type=0 / copy-pic=1 / max-ausize-factor=1.0 / no-dynamic-refine / no-single-sei / no-hevc-aq / no-svt / no-field / qp-adaptation-range=1.00
Default                                  : Yes
Forced                                   : No
Color range                              : Limited
Color primaries                          : BT.709
Transfer characteristics                 : BT.709
Matrix coefficients                      : BT.709

Audio #1
ID                                       : 2
Format                                   :
Format/Info                              : Digital Theater Systems
Codec ID                                 : A_DTS
Duration                                 : 1 h 34 min
Bit rate mode                            : Constant
Bit rate                                 : 1 509 kb/s
Channel(s)                               : 6 channels
Channel layout                           : C L R Ls Rs LFE
Sampling rate                            : 48.0 kHz
Frame rate                               : 93.750 FPS (512 SPF)
Bit depth                                : 24 bits
Compression mode                         : Lossy
Stream size                              : 1 023 MiB (17%)
Title                                    : / 5.1 Ch / 1509 kbps / ПД
Language                                 : Ukrainian
Default                                  : Yes
Forced                                   : Yes

Audio #2
ID                                       : 3
Format                                   :
Format/Info                              : Digital Theater Systems
Codec ID                                 : A_DTS
Duration                                 : 1 h 34 min
Bit rate mode                            : Constant
Bit rate                                 : 1 509 kb/s
Channel(s)                               : 6 channels
Channel layout                           : C L R Ls Rs LFE
Sampling rate                            : 48.0 kHz
Frame rate                               : 93.750 FPS (512 SPF)
Bit depth                                : 24 bits
Compression mode                         : Lossy
Stream size                              : 1 021 MiB (17%)
Title                                    : / 5.1 Ch / 1509 kbps / Original
Language                                 : English
Default                                  : No
Forced                                   : No

Text #1
ID                                       : 4
Format                                   : UTF-8
Codec ID                                 : S_TEXT/UTF8
Codec ID/Info                            : UTF-8 Plain Text
Duration                                 : 1 h 26 min
Bit rate                                 : 74 b/s
Count of elements                        : 1378
Stream size                              : 47.7 KiB (0%)
Title                                    : Full
Language                                 : English
Default                                  : No
Forced                                   : No

Text #2
ID                                       : 5
Format                                   : UTF-8
Codec ID                                 : S_TEXT/UTF8
Codec ID/Info                            : UTF-8 Plain Text
Duration                                 : 1 h 28 min
Bit rate                                 : 87 b/s
Count of elements                        : 1847
Stream size                              : 56.8 KiB (0%)
Title                                    : SDH
Language                                 : English
Default                                  : No
Forced                                   : No

Text #3
ID                                       : 6
Format                                   : UTF-8
Codec ID                                 : S_TEXT/UTF8
Codec ID/Info                            : UTF-8 Plain Text
Duration                                 : 1 h 28 min
Bit rate                                 : 114 b/s
Count of elements                        : 1847
Stream size                              : 74.4 KiB (0%)
Title                                    : SDH-Colored
Language                                 : English
Default                                  : No
Forced                                   : No

Menu
00:00:00.000                             : en:00:00:00.000
00:07:22.692                             : en:00:07:22.692
00:11:36.779                             : en:00:11:36.779
00:15:46.403                             : en:00:15:46.403
00:20:02.242                             : en:00:20:02.242
00:25:21.436                             : en:00:25:21.436
00:26:47.063                             : en:00:26:47.063
00:30:10.183                             : en:00:30:10.183
00:34:45.791                             : en:00:34:45.791
00:36:02.285                             : en:00:36:02.285
00:37:45.304                             : en:00:37:45.304
00:41:27.359                             : en:00:41:27.359
00:43:35.612                             : en:00:43:35.612
00:45:19.508                             : en:00:45:19.508
00:46:51.850                             : en:00:46:51.850
00:50:02.457                             : en:00:50:02.457
00:51:34.341                             : en:00:51:34.341
00:56:12.160                             : en:00:56:12.160
01:00:03.683                             : en:01:00:03.683
01:01:17.840                             : en:01:01:17.840
01:03:50.367                             : en:01:03:50.367
01:06:27.191                             : en:01:06:27.191
01:11:15.771                             : en:01:11:15.771
01:13:40.540                             : en:01:13:40.540
01:15:38.658                             : en:01:15:38.658
01:20:00.336                             : en:01:20:00.336
01:23:57.198                             : en:01:23:57.198
01:26:18.339                             : en:01:26:18.339
Світлини




Джерело: &
Особиста оцінка: 0 - не дивився


 Трекер:    Зареєстрований   

Завантажити / скачати мультфільм українською



відео для новачків



 Зареєстрований:   2019-11-27 22:20
 Розмір:   5.76 GB 
 Оцінка мультфільму:   10/10 (Голосів: 24)
   
Arx1meD_CrackeR 
Частий відвідувач


З нами з: 17.04.13
Востаннє: 01.03.21
Повідомлень: 36

2021-01-01 21:57  
а неможна знайти десь кр локалізований відеоряд ?? по новому каналі йшов і в кіно теж
Ваш часовий пояс: GMT + 2 Години

Нова тема   Відповісти