Таємне вікно / Secret Window (2004) 1080p H.265 Ukr/Eng | Sub Eng

Нові коментарі

Нова тема   Відповісти
Автор Повідомлення
Anonymous 







2019-11-27 23:16  
Таємне вікно / Secret Window (2004) 1080p H.265 Ukr/Eng | Sub Eng

Таємне вікно / Secret Window (2004) 1080p H.265 Ukr/Eng | Sub Eng


Жанр: містика, трилер
Країна: США
Кінокомпанія: Columbia Pictures Corporation, Grand Slam Productions, Pariah Entertainment Group
Режисер: Девід Кепп (David Koepp)
Актори: Джонні Депп (Johnny Depp), Джон Туртурро (John Turturro), Марія Белло (Maria Bello), Тімоті Хаттон (Timothy Hutton), Чарльз С. Даттон (Charles S. Dutton) та інші

Сюжет:
Фільм є екранізацією романа найвідомішого автора триллерів - Стівена Кінга. Цього разу картина оповідає про талановитого і успішного письменника Морте Рейні, який переживає не найкращі часи в своєму житті. Після того, як він застав свою дружину в ліжку з іншим чоловіком і пережив втомливі формальності розлучення, Морт вирішує віддалитися від справ, переїхати за місто і в тиші сільського життя боротися з творчою кризою, що осягнула його.

І все було добре до тих пір, поки одного дня вночі в його будинок не увірвався незнайомець, що звинуватив Морта в плагіаті. Джон Шутер був дуже схожий на психопата, а його пістолет - на справжній, аби Морту прийшла в голову ідея з ним сперечатися. І коли письменник спробував переконати співбесідника в своїй правоті, показавши йому рукописи книги, він зіткнувся з невеликою проблемою - рукопис безслідно зник.

Тривалість: 01:35:55
Якість:

Відео:
кодек: H.265 (HEVC)
розмір кадру: 1918 x 800
бітрейт: 8 643 кб/с
бітова глибина: 10 біт

Увага! Перед завантаженням переконайтесь, що ваш пристрій відтворення (та/або ПЗ) підтримує H.265 (HEVC)

Аудіо # 1:
мова: українська
переклад: багатоголосий закадровий
кодек: AC-3 2.0
бітрейт: 192 кб/с

Аудіо # 2:
мова: англійська
переклад: оригінал
кодек: 5.1
бітрейт: 1511 кб/с

Аудіо # 3:
мова: англійська
переклад: оригінал | коментарі
кодек: AC-3 2.0
бітрейт: 192 кб/с

Субтитри # 1: (Full)
мова: англійська
тип: програмні (м'які)
формат: *.srt


Info
Код:
General
Unique ID                                : 66360712020111219015894557560772450733 (0x31EC9BB5AF4AAA2B69AE13A5D9B759AD)
Complete name                            : Secret Window (2004) 1080p H.265 [UKR_ENG] [Hurtom].
Format                                   :
Format version                           : Version 4
File size                                : 7.06 GiB
Duration                                 : 1 h 35 min
Overall bit rate                         : 10.5 Mb/s
Movie name                               : Таємне вікно / Secret Window (2004)
Encoded date                             : UTC 2019-11-27 19:58:20
Writing application                      : v20.0.0 ('I Am The Sun') 64-bit
Writing library                          : libebml v1.3.5 + v1.4.8
Cover                                    : Yes
Attachments                              : cover.jpg

Video
ID                                       : 1
Format                                   : HEVC
Format/Info                              : High Efficiency Video Coding
Format profile                           : Main [email protected]@High
Codec ID                                 : V_MPEGH/ISO/HEVC
Duration                                 : 1 h 35 min
Bit rate                                 : 8 643 kb/s
Width                                    : 1 918 pixels
Height                                   : 800 pixels
Display aspect ratio                     : 2.40:1
Frame rate mode                          : Constant
Frame rate                               : 23.976 (23976/1000) FPS
Original frame rate                      : 23.976 (24000/1001) FPS
Color space                              : YUV
Chroma subsampling                       : 4:2:0
Bit depth                                : 10 bits
Bits/(Pixel*Frame)                       : 0.235
Stream size                              : 5.79 GiB (82%)
Title                                    : Таємне вікно / Secret Window (2004)
Writing library                          : x265 3.2.1+1-b5c86a64bbbe:[Windows][MSVC 1923][64 bit] 10bit
Encoding settings                        : cpuid=1111039 / frame-threads=3 / numa-pools=12 / wpp / no-pmode / no-pme / no-psnr / no-ssim / log-level=2 / input-csp=1 / input-res=1918x800 / interlace=0 / total-frames=138000 / level-idc=41 / high-tier=1 / uhd-bd=0 / ref=5 / no-allow-non-conformance / no-repeat-headers / annexb / no-aud / no-hrd / info / hash=0 / no-temporal-layers / open-gop / min-keyint=23 / keyint=240 / gop-lookahead=0 / bframes=12 / b-adapt=2 / b-pyramid / bframe-bias=0 / rc-lookahead=60 / lookahead-slices=4 / scenecut=40 / radl=0 / no-splice / no-intra-refresh / ctu=32 / min-cu-size=8 / rect / amp / max-tu-size=32 / tu-inter-depth=4 / tu-intra-depth=4 / limit-tu=1 / rdoq-level=2 / dynamic-rd=0.00 / no-ssim-rd / signhide / no-tskip / nr-intra=0 / nr-inter=0 / no-constrained-intra / no-strong-intra-smoothing / max-merge=4 / limit-refs=2 / limit-modes / me=3 / subme=7 / merange=57 / temporal-mvp / no-hme / weightp / weightb / no-analyze-src-pics / deblock=-3:-3 / no-sao / no-sao-non-deblock / rd=6 / selective-sao=0 / no-early-skip / no-rskip / no-fast-intra / no-tskip-fast / no-cu-lossless / no-b-intra / no-splitrd-skip / rdpenalty=0 / psy-rd=2.00 / psy-rdoq=1.00 / no-rd-refine / no-lossless / cbqpoffs=0 / crqpoffs=0 / rc=crf / crf=20.0 / qcomp=0.65 / qpstep=4 / stats-write=0 / stats-read=0 / vbv-maxrate=50000 / vbv-bufsize=50000 / vbv-init=0.9 / crf-max=0.0 / crf-min=0.0 / ipratio=1.40 / pbratio=1.30 / aq-mode=1 / aq-strength=1.00 / no-cutree / zone-count=0 / no-strict-cbr / qg-size=32 / no-rc-grain / qpmax=69 / qpmin=0 / no-const-vbv / sar=1 / overscan=0 / videoformat=5 / range=0 / colorprim=1 / transfer=1 / colormatrix=1 / chromaloc=0 / display-window=0 / cll=0,0 / min-luma=0 / max-luma=1023 / log2-max-poc-lsb=8 / vui-timing-info / vui-hrd-info / slices=1 / no-opt-qp-pps / no-opt-ref-list-length-pps / no-multi-pass-opt-rps / scenecut-bias=0.05 / no-opt-cu-delta-qp / no-aq-motion / no-hdr / no-hdr-opt / no-dhdr10-opt / no-idr-recovery-sei / analysis-reuse-level=5 / scale-factor=0 / refine-intra=0 / refine-inter=0 / refine-mv=1 / refine-ctu-distortion=0 / no-limit-sao / ctu-info=0 / no-lowpass-dct / refine-analysis-type=0 / copy-pic=1 / max-ausize-factor=1.0 / no-dynamic-refine / no-single-sei / no-hevc-aq / no-svt / no-field / qp-adaptation-range=1.00
Default                                  : Yes
Forced                                   : No
Color range                              : Limited
Color primaries                          : BT.709
Transfer characteristics                 : BT.709
Matrix coefficients                      : BT.709

Audio #1
ID                                       : 2
Format                                   : AC-3
Format/Info                              : Audio Coding 3
Commercial name                          : Dolby Digital
Codec ID                                 : A_AC3
Duration                                 : 1 h 35 min
Bit rate mode                            : Constant
Bit rate                                 : 192 kb/s
Channel(s)                               : 2 channels
Channel layout                           : L R
Sampling rate                            : 48.0 kHz
Frame rate                               : 31.250 FPS (1536 SPF)
Bit depth                                : 16 bits
Compression mode                         : Lossy
Stream size                              : 132 MiB (2%)
Title                                    : / 2.0 Ch / 192 kbps / БЗ / Inter
Language                                 : Ukrainian
Service kind                             : Complete Main
Default                                  : Yes
Forced                                   : Yes

Audio #2
ID                                       : 3
Format                                   :
Format/Info                              : Digital Theater Systems
Codec ID                                 : A_DTS
Duration                                 : 1 h 35 min
Bit rate mode                            : Constant
Bit rate                                 : 1 510 kb/s
Channel(s)                               : 6 channels
Channel layout                           : C L R Ls Rs LFE
Sampling rate                            : 48.0 kHz
Frame rate                               : 93.750 FPS (512 SPF)
Bit depth                                : 24 bits
Compression mode                         : Lossy
Delay relative to video                  : 11 ms
Stream size                              : 1.01 GiB (14%)
Title                                    : / 5.1 Ch / 1509 kbps / Original
Language                                 : English
Default                                  : No
Forced                                   : No

Audio #3
ID                                       : 4
Format                                   : AC-3
Format/Info                              : Audio Coding 3
Commercial name                          : Dolby Digital
Codec ID                                 : A_AC3
Duration                                 : 1 h 35 min
Bit rate mode                            : Constant
Bit rate                                 : 192 kb/s
Channel(s)                               : 2 channels
Channel layout                           : L R
Sampling rate                            : 48.0 kHz
Frame rate                               : 31.250 FPS (1536 SPF)
Bit depth                                : 16 bits
Compression mode                         : Lossy
Stream size                              : 132 MiB (2%)
Title                                    : / 2.0 Ch / 192 kbps / Original / Commentary
Language                                 : English
Service kind                             : Complete Main
Default                                  : No
Forced                                   : No

Text
ID                                       : 5
Format                                   : UTF-8
Codec ID                                 : S_TEXT/UTF8
Codec ID/Info                            : UTF-8 Plain Text
Duration                                 : 1 h 31 min
Bit rate                                 : 51 b/s
Count of elements                        : 955
Stream size                              : 34.4 KiB (0%)
Title                                    : Full
Language                                 : English
Default                                  : No
Forced                                   : No

Menu
00:00:00.000                             : :Chapter 1
00:10:00.000                             : :Chapter 2
00:20:00.000                             : :Chapter 3
00:30:00.000                             : :Chapter 4
00:40:00.000                             : :Chapter 5
00:50:00.000                             : :Chapter 6
01:00:00.000                             : :Chapter 7
01:10:00.000                             : :Chapter 8
01:20:00.000                             : :Chapter 9
01:30:00.000                             : :Chapter 10
Світлини




Джерело: &
Особиста оцінка: 0 - не дивився


Срібний реліз (на рейтинг впливає 50% завантаженого)
 Трекер:    Зареєстрований   

Завантажити / скачати фільм українською



відео для новачків



 Зареєстрований:   2019-11-27 23:16
 Розмір:   7.06 GB 
 Оцінка фільму:   10/10 (Голосів: 4)
   
Інші релізи
   Таємне вікно / Secret Window (2004) Remux 1080p Ukr/Eng | Sub Eng staf777  1 / 0   17.84 GB   2020-04-28 23:13 
   Таємне вікно / Secret Window (2004) AVC Ukr/Eng | Sub Eng staf777  3 / 0   2.11 GB   2018-08-10 22:34 
   Таємне вікно / Secret Window (2004) 1080p Ukr/Eng | Sub Eng ratbol  4 / 0   8.36 GB   2012-03-16 23:05 
   Таємне вікно / Secret Window (2004) 720p Ukr/Eng | Sub Eng DеLight  3 / 0   4.21 GB   2011-10-27 22:47 
   Таємне вікно / Secret Window (2004) Ukr/Eng | Sub Eng Romario_O  9 / 1   1.76 GB   2009-11-28 19:08 
Ваш часовий пояс: GMT + 2 Години

Нова тема   Відповісти