Гра в хованки / Ready or Not (2019) AVC Ukr/Eng | Sub Ukr/Eng

Нові коментарі

Нова тема   Відповісти
Автор Повідомлення
Anonymous 







2019-11-27 15:11  
Гра в хованки / Ready or Not (2019) AVC Ukr/Eng | Sub Ukr/Eng

Гра в хованки / Ready or Not (2019) AVC Ukr/Eng | Sub Ukr/Eng
Альтернативні постери:

Гра в хованки / Ready or Not (2019) AVC Ukr/Eng | Sub Ukr/Eng





Жанр: детектив, жахи, трилер, чорна комедія
Країна: США



Кінокомпанія: Mythology Entertainment, Vinson Films
Режисер: Меттью Беттінеллі, Тайлер Джиллетт
Актори: Самара Вівінґ, Адам Броді, Марк О'Брайен, Генрі Черні, Енді МакДавелл, Мелані Скрофано, Еліз Левек, Джон Ралстон, Етан Таварес, Елана Дункельман та інші

Сюжет:
Фільм розповідає про дівчину на ім'я Грейс, яка виходить заміж за хлопця своєї мрії і з нетерпінням чекає, коли стане частиною його великої родини. Але ніч їхнього весілля приймає несподіваний оберт, коли ексцентричні родичі вирішують влаштувати на неї полювання, оскільки вірять, що якщо не принесуть її в жертву, їх спіткає жахлива біда.
Офіційний український трейлер:


Рейтинг MPAA: R - особам до 17 років обов'язкова присутність батьків або дорослого опікуна
Вікова категорія: 16+

Тривалість: 01:35:22
Якість: AVC

Відео:
кодек:
розмір кадру: 1024x428
бітрейт: 1750 кб/с

Аудіо # 1:
мова: українська
переклад: професійний дубльований
кодек: 2.0
бітрейт: 192 кб/с

Аудіо # 2:
мова: англійська
переклад: оригінал
кодек: 5.1
бітрейт: 448 кб/с

Субтитри # 1:
мова: українська (форсовані)
тип: програмні (м'які)
формат: *.srt
переклад: igor911

Субтитри # 2:
мова: українська
тип: програмні (м'які)
формат: *.srt
переклад: Дмитро Рассказов

Субтитри # 3:
мова: англійська
тип: програмні (м'які)
формат: *.srt

Збережено оригінальні розділи, як на Blu-ray
Info
Код:

Complete name               : Ready or Not (2019) [Ukr,Eng sub.Ukr,Eng] AVC [Hurtom].
Format                      :
Format version              : Version 4
File size                   : 1.59 GiB
Duration                    : 1 h 35 min
Overall bit rate            : 2 393 kb/s
Movie name                  : Гра в хованки / Ready or Not (2019) [Ukr,Eng sub.Ukr,Eng] AVC [Hurtom]
Encoded date                : UTC 2019-11-29 13:11:59
Writing application         : v40.0.0 ('Old Town Road + Pony') 64-bit
Writing library             : libebml v1.3.9 + v1.5.2
Cover                       : Yes
Attachments                 : cover.jpg

Video
ID                          : 1
Format                      : AVC
Format/Info                 : Advanced Video Codec
Format profile              : [email protected]
Format settings             : CABAC / 12 Ref Frames
Format settings, CABAC      : Yes
Format settings, Reference  : 12 frames
Codec ID                    : V_MPEG4/ISO/AVC
Duration                    : 1 h 35 min
Bit rate                    : 1 750 kb/s
Width                       : 1 024 pixels
Height                      : 428 pixels
Display aspect ratio        : 2.40:1
Frame rate mode             : Constant
Frame rate                  : 23.976 (23976/1000) FPS
Color space                 : YUV
Chroma subsampling          : 4:2:0
Bit depth                   : 8 bits
Scan type                   : Progressive
Bits/(Pixel*Frame)          : 0.167
Stream size                 : 1.17 GiB (73%)
Title                       : Гра в хованки / Ready or Not (2019) AVC [Enigma]
Writing library             : core 152 r2851 ba24899
Encoding settings           : cabac=1 / ref=12 / deblock=1:-2:-2 / analyse=0x3:0x113 / me=umh / subme=10 / psy=1 / psy_rd=1.02:0.06 / mixed_ref=1 / me_range=32 / chroma_me=1 / trellis=2 / 8x8dct=1 / cqm=0 / deadzone=21,11 / fast_pskip=0 / chroma_qp_offset=-3 / threads=12 / lookahead_threads=3 / sliced_threads=0 / nr=0 / decimate=0 / interlaced=0 / bluray_compat=0 / constrained_intra=0 / bframes=12 / b_pyramid=2 / b_adapt=2 / b_bias=0 / direct=3 / weightb=1 / open_gop=0 / weightp=2 / keyint=240 / keyint_min=23 / scenecut=40 / intra_refresh=0 / rc=2pass / mbtree=0 / bitrate=1750 / ratetol=1.0 / qcomp=0.60 / qpmin=0 / qpmax=51 / qpstep=4 / cplxblur=20.0 / qblur=0.5 / ip_ratio=1.40 / pb_ratio=1.30 / aq=2:0.90
Language                    : English
Default                     : Yes
Forced                      : No
Color range                 : Limited
Color primaries             : BT.709
Transfer characteristics    : BT.709
Matrix coefficients         : BT.709

Audio #1
ID                          : 2
Format                      : AC-3
Format/Info                 : Audio Coding 3
Commercial name             : Dolby Digital
Codec ID                    : A_AC3
Duration                    : 1 h 35 min
Bit rate mode               : Constant
Bit rate                    : 192 kb/s
Channel(s)                  : 2 channels
Channel layout              : L R
Sampling rate               : 48.0 kHz
Frame rate                  : 31.250 FPS (1536 SPF)
Compression mode            : Lossy
Stream size                 : 131 MiB (8%)
Title                       : Dub [iTunes] 2.0 192 Kbps
Language                    : Ukrainian
Service kind                : Complete Main
Default                     : Yes
Forced                      : No

Audio #2
ID                          : 3
Format                      : AC-3
Format/Info                 : Audio Coding 3
Commercial name             : Dolby Digital
Codec ID                    : A_AC3
Duration                    : 1 h 35 min
Bit rate mode               : Constant
Bit rate                    : 448 kb/s
Channel(s)                  : 6 channels
Channel layout              : L R C LFE Ls Rs
Sampling rate               : 48.0 kHz
Frame rate                  : 31.250 FPS (1536 SPF)
Compression mode            : Lossy
Stream size                 : 306 MiB (19%)
Title                       : Original, 5.1 448 Kbps
Language                    : English
Service kind                : Complete Main
Default                     : No
Forced                      : No

Text #1
ID                          : 4
Format                      : UTF-8
Codec ID                    : S_TEXT/UTF8
Codec ID/Info               : UTF-8 Plain Text
Duration                    : 1 h 34 min
Bit rate                    : 4 b/s
Count of elements           : 80
Stream size                 : 3.32 KiB (0%)
Title                       : Ukr Forced
Language                    : Ukrainian
Default                     : Yes
Forced                      : Yes

Text #2
ID                          : 5
Format                      : UTF-8
Codec ID                    : S_TEXT/UTF8
Codec ID/Info               : UTF-8 Plain Text
Duration                    : 1 h 34 min
Bit rate                    : 66 b/s
Count of elements           : 1081
Stream size                 : 46.0 KiB (0%)
Title                       : Ukr full
Language                    : Ukrainian
Default                     : No
Forced                      : No

Text #3
ID                          : 6
Format                      : UTF-8
Codec ID                    : S_TEXT/UTF8
Codec ID/Info               : UTF-8 Plain Text
Duration                    : 1 h 34 min
Bit rate                    : 51 b/s
Count of elements           : 1169
Stream size                 : 35.5 KiB (0%)
Title                       : Eng full
Language                    : English
Default                     : No
Forced                      : No

Menu
00:00:00.000                : en:Chapter 01
00:03:11.983                : en:Chapter 02
00:06:49.534                : en:Chapter 03
00:09:27.441                : en:Chapter 04
00:12:26.787                : en:Chapter 05
00:16:24.149                : en:Chapter 06
00:21:58.275                : en:Chapter 07
00:25:21.311                : en:Chapter 08
00:28:00.261                : en:Chapter 09
00:31:21.921                : en:Chapter 10
00:34:46.459                : en:Chapter 11
00:36:08.624                : en:Chapter 12
00:38:23.676                : en:Chapter 13
00:41:55.930                : en:Chapter 14
00:45:40.362                : en:Chapter 15
00:48:02.713                : en:Chapter 16
00:51:50.440                : en:Chapter 17
00:54:05.367                : en:Chapter 18
00:57:04.963                : en:Chapter 19
00:59:52.714                : en:Chapter 20
01:01:37.902                : en:Chapter 21
01:04:01.671                : en:Chapter 22
01:07:31.505                : en:Chapter 23
01:09:25.494                : en:Chapter 24
01:11:48.053                : en:Chapter 25
01:15:59.346                : en:Chapter 26
01:18:34.584                : en:Chapter 27
01:21:39.644                : en:Chapter 28
01:24:07.292                : en:Chapter 29
01:27:48.012                : en:Chapter 30
01:29:22.315                : en:Chapter 31
01:30:48.860                : en:Chapter 32


Джерело: & &

29.11.2019 реліз оновлено - додано український дубляж та українські форсовані субтитри, замінено ріп на якісніший


 Трекер:    Зареєстрований   

Завантажити / скачати фільм українською



відео для новачків



 Зареєстрований:   2019-11-29 15:24
 Розмір:   1.59 GB 
 Оцінка фільму:   9.1/10 (Голосів: 78)
 ЗАЛИШАЙТЕСЬ ЯКОМОГА ДОВШЕ НА РОЗДАЧІ! ЗАВАНТАЖИВ САМ - ДАЙ ЗАВАНТАЖИТИ ІНШИМ!
   
Інші релізи
   Гра в хованки / Ready or Not (2019) 1080p Ukr/Eng | Sub Ukr/Eng staf777  39 / 2   11.12 GB   2019-12-01 14:28 
   Гра в хованки / Ready or Not (2019) 720p Ukr/Eng | Sub Ukr/Eng 11FrYkT  117 / 2   4.89 GB   2019-11-29 16:02 
   Гра в хованки / Ready or Not (2019) Remux 1080p Ukr/Eng | Sub Ukr/Eng antik_2008  64 / 0   23.82 GB   2019-11-29 03:07 
   Гра в хованки / Ready or Not (2019) antik_2008  104 / 1   1.47 GB   2019-11-29 03:06 
don pedro 
Попереджень: 1
Попереджень: 1 


З нами з: 29.06.11
Востаннє: 07.12.19
Повідомлень: 14969

2019-11-27 15:19  
Чудовий фільм з несподіваним (або очікуваним, як подивитись) закінченням.
Maters 
Відео Гуртом - підтримка та поширення
Відео Гуртом - підтримка та поширення


З нами з: 27.03.12
Востаннє: 07.12.19
Повідомлень: 1880

2019-11-27 17:34  
Ну, таке, - середньої паршивості ))
MutuLI 
Відео Гуртом - фільмокрай
Відео Гуртом - фільмокрай


З нами з: 08.03.09
Востаннє: 07.12.19
Повідомлень: 1562

2019-11-27 22:45  
українські субтитри добре ще зразу закидати на https://www.opensubtitles.org/uk та сервер доріжок, бо в розділі субтитрів часто через деякий час не стає сідерів на релізах, і неможливо нічого скачати.
sisak_i 
Новенький


З нами з: 01.05.08
Востаннє: 07.12.19
Повідомлень: 22

2019-11-28 02:17  
досить непоганий фільм. є моменти не продумані, але в загальному в порівнянні з тим, що зараз знімають - шедевр
ТиДиви 
Свій


З нами з: 03.01.17
Востаннє: 07.12.19
Повідомлень: 93

2019-11-29 08:57  
Вражаючий фільм, дайте акторці Самара Вівінґ оскара.
bot 
робот


З нами з: 30.09.07
Востаннє: 26.05.05
Повідомлень: 22591

2019-11-29 15:24  
Тему перенесено з Фільми до форуму Фільми


igor911

Anonymous 







2019-11-29 15:25  
Реліз оновлено - додано український дубляж та українські форсовані субтитри, замінено ріп на якісніший
masiff 
Свій


З нами з: 06.12.16
Востаннє: 06.12.19
Повідомлень: 94

2019-11-29 17:19  
А The Lighthouse (Маяк)може бути. Заздалегідь дякую !!!!
Magicsee 
Новенький


З нами з: 05.01.19
Востаннє: 06.12.19
Повідомлень: 8

2019-11-29 23:40  
Сподобався- те, що треба наприкінці робочого тижня.
Фінальна фраза супер.

Гонта 
Свій


З нами з: 16.12.09
Востаннє: 07.12.19
Повідомлень: 135

2019-11-29 23:50  
Моя улюблена Самарка!!!!!))))
madagaskar1 
VIP


З нами з: 08.05.14
Востаннє: 07.12.19
Повідомлень: 792

2019-11-30 12:14  
маячня хоча спочатку трохи класно а потім гуано 4/10
banderlog12345 
Частий відвідувач


З нами з: 14.03.13
Востаннє: 04.12.19
Повідомлень: 33

2019-12-01 11:16  
динамічний фільм)не жахи -комедія)
V!z 
Новенький


З нами з: 20.11.16
Востаннє: 01.12.19
Повідомлень: 4

2019-12-01 15:44  
Фільм те що треба, гра акторів гарна, сюжет новий, я такого ще не зустрічав)
Sokolova Kseniya 
Новенький


З нами з: 11.06.17
Востаннє: 01.12.19
Повідомлень: 6

2019-12-01 21:33  
Мені сподобалося, фільм не примітивний. Незважаючи на простий сюжет, основна ідея та проблема висвітлені чудово, навіть в такій химерній формі.
tpolit 
VIP


З нами з: 10.01.15
Востаннє: 07.12.19
Повідомлень: 509

2019-12-02 15:12  
Гарнюня головна акторка Самара Вівінґ виглядає як поліпшена версія іншої відомої акторки Марго Роббі. Що цікаво, вони обидві австралійки. Я спочатку навіть подумав, що це сестри.
White_123 
Поважний учасник


З нами з: 15.02.13
Востаннє: 05.12.19
Повідомлень: 177

2019-12-03 23:15  
Класний фільм, з елементами чорнючої комедії. Є, звісно, нелогічні дії головної героїні, але в цілому фільм дивитись цікаво.
8/10.

oleogo2308 
Новенький


З нами з: 22.04.17
Востаннє: 06.12.19
Повідомлень: 9

2019-12-05 20:02  
Спершу думав не дивитися,бо якийсь шлак. Але це реально вартий перегляду фільм!
Sergey41099 
Новенький


З нами з: 06.12.19
Востаннє: 07.12.19
Повідомлень: 1

2019-12-06 21:06  
Фільм не поганий. Не поціновувач я цього жанру, але фільм зайшов Wink (2)
Ваш часовий пояс: GMT + 2 Години

Нова тема   Відповісти