Плюс один / Plus One (2019) 1080p H.265 Ukr/Eng | Sub Eng

Нові коментарі

Нова тема   Відповісти
Автор Повідомлення
Anonymous 







2019-11-27 13:19  
Плюс один / Plus One (2019) 1080p H.265 Ukr/Eng | Sub Eng

Плюс один / Plus One (2019) 1080p H.265 Ukr/Eng | Sub Eng


Жанр: драма, комедія, мелодрама
Країна: США
Кінокомпанія: Red Hour Films, Studio71, Firewatch
Режисер: Джефф Чан, Ендрю Раймер
Актори: Майя Ерскін, Джек Квейд, Ед Беглі мол., Алекс Анфанджер, Дженніфер Бартельс, Джон БассЕмма Белл, Бек Беннетт

Сюжет:
Літо - пора весіль. Закоренілий холостяк Бен та його подруга Еліс, яка тільки що розлучилася зі своїм хлопцем, запрошені відразу на десять весіль. Щоб не шукати плюс один, вони вирішують прикинутися закоханою парою. Чи вдасться їм встояти перед магією сексу навколо і залишитися друзями?

Тривалість: 01:38:32
Якість:

Відео:
кодек: H.265 (HEVC)
розмір кадру: 1920 x 808
бітрейт: 6 866 кб/с
бітова глибина: 10 біт

Увага! Перед завантаженням переконайтесь, що ваш пристрій відтворення (та/або ПЗ) підтримує H.265 (HEVC)

Аудіо # 1:
мова: українська
переклад: професійний дубльований
кодек: AC-3 2.0
бітрейт: 192 кб/с

Аудіо # 2:
мова: англійська
переклад: оригінал
кодек: 5.1
бітрейт: 1510 кб/с

Субтитри # 1-2: (Full, SDH)
мова: англійська
тип: програмні (м'які)
формат: *.srt


Info
Код:
General
Unique ID                                : 236403833350744585805252922916177867953 (0xB1D9B8DF98B8C788C5A52CBDCF6A74B1)
Complete name                            : Plus One (2019) 1080p H.265 [UKR_ENG] [Hurtom].
Format                                   :
Format version                           : Version 4
File size                                : 5.90 GiB
Duration                                 : 1 h 38 min
Overall bit rate                         : 8 569 kb/s
Movie name                               : Плюс один / Plus One (2019)
Encoded date                             : UTC 2019-11-26 06:34:49
Writing application                      : v20.0.0 ('I Am The Sun') 64-bit
Writing library                          : libebml v1.3.5 + v1.4.8
Cover                                    : Yes
Attachments                              : cover.jpg

Video
ID                                       : 1
Format                                   : HEVC
Format/Info                              : High Efficiency Video Coding
Format profile                           : Main [email protected]@High
Codec ID                                 : V_MPEGH/ISO/HEVC
Duration                                 : 1 h 38 min
Bit rate                                 : 6 866 kb/s
Width                                    : 1 920 pixels
Height                                   : 808 pixels
Display aspect ratio                     : 2.40:1
Frame rate mode                          : Constant
Frame rate                               : 23.976 (24000/1001) FPS
Color space                              : YUV
Chroma subsampling                       : 4:2:0
Bit depth                                : 10 bits
Bits/(Pixel*Frame)                       : 0.185
Stream size                              : 4.73 GiB (80%)
Title                                    : Плюс один / Plus One (2019)
Language                                 : English
Default                                  : Yes
Forced                                   : No
Color range                              : Limited
Color primaries                          : BT.709
Transfer characteristics                 : BT.709
Matrix coefficients                      : BT.709

Audio #1
ID                                       : 2
Format                                   : AC-3
Format/Info                              : Audio Coding 3
Commercial name                          : Dolby Digital
Codec ID                                 : A_AC3
Duration                                 : 1 h 38 min
Bit rate mode                            : Constant
Bit rate                                 : 192 kb/s
Channel(s)                               : 2 channels
Channel layout                           : L R
Sampling rate                            : 48.0 kHz
Frame rate                               : 31.250 FPS (1536 SPF)
Bit depth                                : 16 bits
Compression mode                         : Lossy
Stream size                              : 135 MiB (2%)
Title                                    : / 2.0 Ch / 192 kbps / ПД
Language                                 : Ukrainian
Service kind                             : Complete Main
Default                                  : Yes
Forced                                   : Yes

Audio #2
ID                                       : 3
Format                                   :
Format/Info                              : Digital Theater Systems
Codec ID                                 : A_DTS
Duration                                 : 1 h 38 min
Bit rate mode                            : Constant
Bit rate                                 : 1 509 kb/s
Channel(s)                               : 6 channels
Channel layout                           : C L R Ls Rs LFE
Sampling rate                            : 48.0 kHz
Frame rate                               : 93.750 FPS (512 SPF)
Bit depth                                : 24 bits
Compression mode                         : Lossy
Stream size                              : 1.04 GiB (18%)
Title                                    : / 5.1 Ch / 1509 kbps / Original
Language                                 : English
Default                                  : No
Forced                                   : No

Text #1
ID                                       : 4
Format                                   : UTF-8
Codec ID                                 : S_TEXT/UTF8
Codec ID/Info                            : UTF-8 Plain Text
Duration                                 : 1 h 36 min
Bit rate                                 : 90 b/s
Count of elements                        : 2178
Stream size                              : 64.5 KiB (0%)
Title                                    : Full
Language                                 : English
Default                                  : No
Forced                                   : No

Text #2
ID                                       : 5
Format                                   : UTF-8
Codec ID                                 : S_TEXT/UTF8
Codec ID/Info                            : UTF-8 Plain Text
Duration                                 : 1 h 37 min
Bit rate                                 : 97 b/s
Count of elements                        : 2322
Stream size                              : 69.1 KiB (0%)
Title                                    : SDH
Language                                 : English
Default                                  : No
Forced                                   : No

Menu
00:00:00.000                             : :Chapter 01
00:07:10.263                             : :Chapter 02
00:14:02.424                             : :Chapter 03
00:24:10.323                             : :Chapter 04
00:32:50.468                             : :Chapter 05
00:50:10.298                             : :Chapter 06
01:17:48.455                             : :Chapter 07
01:34:42.009                             : :Chapter 08
Світлини




Джерело: &
Особиста оцінка: 0 - не дивився


 Трекер:    Зареєстрований   

Завантажити / скачати фільм українською



відео для новачків



 Зареєстрований:   2019-11-27 13:19
 Розмір:   5.9 GB 
 Оцінка фільму:   9.7/10 (Голосів: 6)
   
Інші релізи
   Плюс один / Plus One (2019) Remux 1080p Ukr/Eng | Sub Eng antik_2008  7 / 0   17.27 GB   2019-11-20 22:23 
   Плюс один / Plus One (2019) 1080p Ukr/Eng | Sub Eng staf777  14 / 0   5.52 GB   2019-11-20 18:20 
   Плюс один / Plus One (2019) Ukr/Eng antik_2008  18 / 0   1.6 GB   2019-11-20 15:57 
   Плюс один / Plus One (2019) 720p Ukr/Eng | Sub Eng 11FrYkT  6 / 0   3.03 GB   2019-11-20 12:21 
   Плюс один / Plus One (2019) AVC Ukr/Eng | Sub Eng 11FrYkT  19 / 0   1.69 GB   2019-11-20 12:21 
=Каратель= 
Новенький


З нами з: 27.01.19
Востаннє: 29.11.19
Повідомлень: 3

2019-11-29 22:51  
Підскажіть яка якість відео краща на 264 чи 265 (HEVC) відеокодеку??
Ваш часовий пояс: GMT + 2 Години

Нова тема   Відповісти