Геошторм / Geostorm (2017) 1080p Ukr/Eng | Sub Eng

Нові коментарі

Нова тема   Відповісти
Автор Повідомлення
Anonymous 







2019-11-27 14:17  
Геошторм / Geostorm (2017) 1080p Ukr/Eng | Sub Eng

Геошторм / Geostorm (2017) 1080p Ukr/Eng | Sub Eng


Жанр: бойовик, трилер, фантастика
Країна: США
Кінокомпанія: Warner Bros., Electric Entertainment, RatPac-Dune Entertainment, Skydance Productions, Jerry Bruckheimer Films
Режисер: Дін Девлін
Актори: Джерард Батлер, Джим Стьорджес, Еббі Корніш, Ед Гарріс, Енді Ґарсіа, Роберт Шиен, Зазі Бітц, Таліта Бейтман, Деніел Ву, Річард Шифф та інші

Сюжет:
На головного героя фільму Джейка (Джерард Батлер) покладена непроста місія. Він розробляє супутники, що контролюють клімат на планеті. Техніка дала збій і йому потрібно запобігти шторму небувалих масштабів. Стає відомо, що єдина людина, яка здатна змінити програму дії супутників – це Президент Сполучених Штатів.

Тривалість: 01:49:07
Якість:

Відео:
кодек: H.265 (HEVC)
розмір кадру: 1920 x 800
бітрейт: 10 497 кб/с
бітова глибина: 10 біт

Увага! Перед завантаженням переконайтесь, що ваш пристрій відтворення (та/або ПЗ) підтримує H.265 (HEVC)

Аудіо # 1:
мова: українська
переклад: професійний дубльований
кодек: AC-3 2.0
бітрейт: 192 кб/с

Аудіо # 2:
мова: англійська
переклад: оригінал
кодек: 5.1
бітрейт: 1510 кб/с

Субтитри # 1: (Forced)
мова: українська
тип: програмні (м'які)
формат: *.srt

Субтитри # 2-3: (Full, SDH)
мова: англійська
тип: програмні (м'які)
формат: *.srt


Info
Код:
General
Unique ID                                : 200292714559766129284913082142578295052 (0x96AEF941DE6012560B680AA6AEB1C10C)
Complete name                            : Geostorm (2017) 1080p H.265 [UKR_ENG] [Hurtom].
Format                                   :
Format version                           : Version 4
File size                                : 9.30 GiB
Duration                                 : 1 h 49 min
Overall bit rate                         : 12.2 Mb/s
Movie name                               : Геошторм / Geostorm (2017)
Encoded date                             : UTC 2019-11-26 19:12:12
Writing application                      : v20.0.0 ('I Am The Sun') 64-bit
Writing library                          : libebml v1.3.5 + v1.4.8
Cover                                    : Yes
Attachments                              : cover

Video
ID                                       : 1
Format                                   : HEVC
Format/Info                              : High Efficiency Video Coding
Format profile                           : Main [email protected]@High
Codec ID                                 : V_MPEGH/ISO/HEVC
Duration                                 : 1 h 49 min
Bit rate                                 : 10.5 Mb/s
Width                                    : 1 920 pixels
Height                                   : 800 pixels
Display aspect ratio                     : 2.40:1
Frame rate mode                          : Constant
Frame rate                               : 23.976 (24000/1001) FPS
Color space                              : YUV
Chroma subsampling                       : 4:2:0
Bit depth                                : 10 bits
Bits/(Pixel*Frame)                       : 0.285
Stream size                              : 8.00 GiB (86%)
Title                                    : Геошторм / Geostorm (2017)
Writing library                          : x265 3.2+5-354901970679:[Windows][clang 8.0.1][64 bit] 10bit
Encoding settings                        : cpuid=1049583 / frame-threads=5 / numa-pools=4 / wpp / no-pmode / no-pme / no-psnr / no-ssim / log-level=3 / input-csp=1 / input-res=1920x800 / interlace=0 / total-frames=0 / level-idc=41 / high-tier=1 / uhd-bd=0 / ref=5 / allow-non-conformance / no-repeat-headers / annexb / no-aud / no-hrd / info / hash=0 / no-temporal-layers / open-gop / min-keyint=24 / keyint=240 / gop-lookahead=0 / bframes=16 / b-adapt=2 / b-pyramid / bframe-bias=0 / rc-lookahead=40 / lookahead-slices=5 / scenecut=40 / radl=0 / no-splice / no-intra-refresh / ctu=32 / min-cu-size=8 / no-rect / no-amp / max-tu-size=32 / tu-inter-depth=4 / tu-intra-depth=4 / limit-tu=1 / rdoq-level=1 / dynamic-rd=0.00 / no-ssim-rd / signhide / no-tskip / nr-intra=0 / nr-inter=0 / no-constrained-intra / no-strong-intra-smoothing / max-merge=5 / limit-refs=1 / no-limit-modes / me=3 / subme=7 / merange=57 / temporal-mvp / no-frame-dup / no-hme / weightp / no-weightb / no-analyze-src-pics / deblock=-3:-3 / no-sao / no-sao-non-deblock / rd=3 / selective-sao=0 / early-skip / no-rskip / no-fast-intra / no-tskip-fast / no-cu-lossless / b-intra / no-splitrd-skip / rdpenalty=0 / psy-rd=2.00 / psy-rdoq=1.00 / no-rd-refine / no-lossless / cbqpoffs=0 / crqpoffs=0 / rc=crf / crf=20.0 / qcomp=0.60 / qpstep=4 / stats-write=0 / stats-read=0 / vbv-maxrate=50000 / vbv-bufsize=50000 / vbv-init=0.9 / crf-max=0.0 / crf-min=0.0 / ipratio=1.40 / pbratio=1.30 / aq-mode=3 / aq-strength=1.00 / no-cutree / zone-count=0 / no-strict-cbr / qg-size=32 / no-rc-grain / qpmax=69 / qpmin=0 / no-const-vbv / sar=1 / overscan=0 / videoformat=5 / range=0 / colorprim=2 / transfer=2 / colormatrix=2 / chromaloc=0 / display-window=0 / cll=0,0 / min-luma=0 / max-luma=1023 / log2-max-poc-lsb=8 / vui-timing-info / vui-hrd-info / slices=1 / no-opt-qp-pps / no-opt-ref-list-length-pps / no-multi-pass-opt-rps / scenecut-bias=0.05 / no-opt-cu-delta-qp / no-aq-motion / no-hdr / no-hdr-opt / no-dhdr10-opt / no-idr-recovery-sei / analysis-reuse-level=5 / scale-factor=0 / refine-intra=0 / refine-inter=0 / refine-mv=1 / refine-ctu-distortion=0 / no-limit-sao / ctu-info=0 / no-lowpass-dct / refine-analysis-type=0 / copy-pic=1 / max-ausize-factor=1.0 / no-dynamic-refine / no-single-sei / no-hevc-aq / no-svt / no-field / qp-adaptation-range=1.00
Language                                 : English
Default                                  : Yes
Forced                                   : No
Color range                              : Limited

Audio #1
ID                                       : 2
Format                                   : AC-3
Format/Info                              : Audio Coding 3
Commercial name                          : Dolby Digital
Codec ID                                 : A_AC3
Duration                                 : 1 h 49 min
Bit rate mode                            : Constant
Bit rate                                 : 192 kb/s
Channel(s)                               : 2 channels
Channel layout                           : L R
Sampling rate                            : 48.0 kHz
Frame rate                               : 31.250 FPS (1536 SPF)
Bit depth                                : 16 bits
Compression mode                         : Lossy
Stream size                              : 150 MiB (2%)
Title                                    : / 2.0 Ch / 192 kbps / ПД / iTunes
Language                                 : Ukrainian
Service kind                             : Complete Main
Default                                  : Yes
Forced                                   : Yes

Audio #2
ID                                       : 3
Format                                   :
Format/Info                              : Digital Theater Systems
Codec ID                                 : A_DTS
Duration                                 : 1 h 49 min
Bit rate mode                            : Constant
Bit rate                                 : 1 509 kb/s
Channel(s)                               : 6 channels
Channel layout                           : C L R Ls Rs LFE
Sampling rate                            : 48.0 kHz
Frame rate                               : 93.750 FPS (512 SPF)
Bit depth                                : 24 bits
Compression mode                         : Lossy
Stream size                              : 1.15 GiB (12%)
Title                                    : / 5.1 Ch / 1509 kbps / Original
Language                                 : English
Default                                  : No
Forced                                   : No

Text #1
ID                                       : 4
Format                                   : UTF-8
Codec ID                                 : S_TEXT/UTF8
Codec ID/Info                            : UTF-8 Plain Text
Duration                                 : 1 h 40 min
Bit rate                                 : 5 b/s
Count of elements                        : 71
Stream size                              : 3.70 KiB (0%)
Title                                    : Forced
Language                                 : Ukrainian
Default                                  : Yes
Forced                                   : Yes

Text #2
ID                                       : 5
Format                                   : UTF-8
Codec ID                                 : S_TEXT/UTF8
Codec ID/Info                            : UTF-8 Plain Text
Duration                                 : 1 h 40 min
Bit rate                                 : 66 b/s
Count of elements                        : 1464
Stream size                              : 49.0 KiB (0%)
Title                                    : Full
Language                                 : English
Default                                  : No
Forced                                   : No

Text #3
ID                                       : 6
Format                                   : UTF-8
Codec ID                                 : S_TEXT/UTF8
Codec ID/Info                            : UTF-8 Plain Text
Duration                                 : 1 h 40 min
Bit rate                                 : 72 b/s
Count of elements                        : 1623
Stream size                              : 53.4 KiB (0%)
Title                                    : SDH
Language                                 : English
Default                                  : No
Forced                                   : No

Menu
00:00:00.000                             : :00:00:00.000
00:08:33.972                             : :00:08:33.972
00:16:52.053                             : :00:16:52.053
00:27:20.556                             : :00:27:20.556
00:39:13.184                             : :00:39:13.184
00:48:47.925                             : :00:48:47.925
01:00:24.746                             : :01:00:24.746
01:11:01.090                             : :01:11:01.090
01:19:14.959                             : :01:19:14.959
01:30:08.570                             : :01:30:08.570
01:40:25.728                             : :01:40:25.728
Світлини




Джерело: &
Особиста оцінка: 0 - не дивився


 Трекер:    Зареєстрований   

Завантажити / скачати фільм українською



відео для новачків



 Зареєстрований:   2019-11-27 14:17
 Розмір:   9.3 GB 
 Оцінка фільму:   8.3/10 (Голосів: 9)
   
Інші релізи
   Геошторм / Geostorm (2017) Remux 1080p Ukr/Eng | Sub Eng staf777  2 / 0   26.1 GB   2020-06-09 14:04 
   Геошторм / Geostorm (2017) AVC [Open Matte] igor911  8 / 0   2.26 GB   2020-05-26 20:52 
   Геошторм / Geostorm (2017) 1080p [Open Matte] Ukr/Eng | Sub Eng igor911  5 / 0   9.32 GB   2020-05-26 18:20 
   Геошторм / Geostorm (2017) 720p Ukr/Eng | Sub Eng igor911  5 / 0   4.47 GB   2020-05-26 15:00 
   Геошторм / Geostorm (2017) AVC Ukr/Eng | Sub Eng igor911  3 / 0   2.18 GB   2020-05-26 14:19 
   Геошторм / Geostorm (2017) 1080p (60 fps) Ukr/Eng | Sub Eng Drool  1 / 0   13 GB   2018-08-23 14:33 
   Геошторм / Geostorm (2017) Covenant  4 / 0   1.45 GB   2018-01-21 21:04 
   Геошторм / Geostorm (2017) 1080p Ukr/Eng | Sub Eng Electroz  3 / 0   8.13 GB   2018-01-19 17:52 
Ваш часовий пояс: GMT + 2 Години

Нова тема   Відповісти