Блакитний Грім / Blue Thunder (1983) Remux 1080p Ukr/Eng | Sub Eng

Нові коментарі

Нова тема   Відповісти
Автор Повідомлення
MakRA 
VIP


З нами з: 11.11.18
Востаннє: 23.09.20
Повідомлень: 1119

2019-11-27 01:25  
Блакитний Грім / Blue Thunder (1983) Remux 1080p Ukr/Eng | Sub Eng


Український постер:

Жанр: екшн, кримінальний, драма
Країна: США



Кінокомпанія: Columbia Pictures, Rastar Pictures
Режисер: Джон Бедем [John Badham]
Актори: Рой Шайдер [Roy Scheider], Уоррен Оутс [Warren Oates], Кенді Кларк [Candy Clark], Деніел Стерн [Daniel Stern], Пол Роублінг [Paul Roebling], Девід Шайнер [David Sheiner], Джо Сантос [Joe Santos], Малкольм МакДауелл [Malcolm McDowell], Ед Бернард [Ed Bernard], Джейсон Бернард [Jason Bernard]

Сюжет:
Це і трилер, і бойовик, і фантастика .... Пілота поліції Лос-Анджелеса Френка Мерфі влаштовують на новий модифікований гелікоптер під назвою «Блакитний грім», щоб він навчився керувати ним. Цей гвинтокрил оснащений потужною зброєю і спроектований таким чином, щоб він міг придушувати заколоти на вулицях міста. Залучення Мерфі потрібно було творцям гелікоптера лише для того, щоб ввести «Блакитний грім» в місто. У Мерфі і іншого пілота цього проекту є істотні розбіжності, і поступово конфлікт між ними загострюється, особливо після того, як Мерфі починає підозрювати, що йому розповіли далеко не всі подробиці, і що «Блакитний грім» - це щось значно більше ...


Тривалість: 01:49:15
Якість: Remux 1080p
Відео:
кодек:
розмір кадру: 1920 х 1080
бітрейт: 26 Mб/с

Аудіо # 1:
мова: українська
переклад: багатоголосий закадровий
кодек: 5.1
бітрейт: 448 кб/с

Аудіо # 2:
мова: англійська
переклад: оригінал
кодек: TrueHD 5.1
бітрейт: 1616 кб/с

Аудіо # 3:
мова: англійська
переклад: оригінал
кодек: 5.1
бітрейт: 640 кб/с

Аудіо # 4:
мова: англійська
переклад: коментарі режисера Джона Бедема, монтажера Френка Моррісса та керівника управління рухом Хойта Йотмана
кодек: 2.0
бітрейт: 192 кб/с

Субтитри # 1: (Full)
мова: англійська
тип: пререндерні
формат: *.pgs

Субтитри # 2: (SDH)
мова: англійська
тип: пререндерні
формат: *.pgs

Субтитри # 3: (Full) | на коментарі
мова: англійська
тип: пререндерні
формат: *.pgs

Збережено оригінальні розділи, як на Blu-ray.
Info
General
Unique ID : 277653080612469554929350988316788330552 (0xD0E209C82651BD2692AAB522839F1038)
Complete name : I:\+ Фільми в HD\екшн, кримінальний\Blue Thunder (1983) Remux 1080p UkrEng Sub Eng [Hurtom].
Format :
Format version : Version 4
File size : 22.1 GiB
Duration : 1 h 49 min
Overall bit rate mode : Variable
Overall bit rate : 28.9 Mb/s
Movie name : Блакитний Грім / Blue Thunder (1983) Remux 1080p Ukr/Eng | Sub Eng [Hurtom]
Encoded date : UTC 2019-11-26 21:29:34
Writing application : v25.0.0 ('Prog Noir') 64-bit
Writing library : libebml v1.3.6 + v1.4.9
Cover : Yes
Attachments : cover.jpg

Video
ID : 1
Format : AVC
Format/Info : Advanced Video Codec
Format profile : [email protected]
Format settings : CABAC / 2 Ref Frames
Format settings, CABAC : Yes
Format settings, Reference fra : 2 frames
Codec ID : V_MPEG4/ISO/AVC
Duration : 1 h 49 min
Bit rate mode : Variable
Bit rate : 26.0 Mb/s
Width : 1 920 pixels
Height : 1 080 pixels
Display aspect ratio : 16:9
Frame rate mode : Constant
Frame rate : 23.976 (24000/1001) FPS
Color space : YUV
Chroma subsampling : 4:2:0
Bit depth : 8 bits
Scan type : Progressive
Bits/(Pixel*Frame) : 0.522
Stream size : 19.8 GiB (90%)
Title : Blue Thunder (1983) Remux 1080p Ukr/Eng | Sub Eng [Hurtom]
Language : Ukrainian
Default : Yes
Forced : Yes

Audio #1
ID : 2
Format : AC-3
Format/Info : Audio Coding 3
Commercial name : Dolby Digital
Codec ID : A_AC3
Duration : 1 h 49 min
Bit rate mode : Constant
Bit rate : 384 kb/s
Channel(s) : 6 channels
Channel layout : L R C LFE Ls Rs
Sampling rate : 48.0 kHz
Frame rate : 31.250 FPS (1536 SPF)
Bit depth : 16 bits
Compression mode : Lossy
Stream size : 300 MiB (1%)
Title : MVO [1+1] 5.1
Language : Ukrainian
Service kind : Complete Main
Default : Yes
Forced : Yes

Audio #2
ID : 3
Format : MLP FBA
Format/Info : Meridian Lossless Packing FBA
Commercial name : Dolby TrueHD
Codec ID : A_TRUEHD
Duration : 1 h 49 min
Bit rate mode : Variable
Bit rate : 1 616 kb/s
Maximum bit rate : 2 970 kb/s
Channel(s) : 6 channels
Channel layout : L R C LFE Ls Rs
Sampling rate : 48.0 kHz
Frame rate : 1 200.000 FPS (40 SPF)
Compression mode : Lossless
Stream size : 1.23 GiB (6%)
Title : Original TrueHD 5.1
Language : English
Default : No
Forced : No

Audio #3
ID : 4
Format : AC-3
Format/Info : Audio Coding 3
Commercial name : Dolby Digital
Codec ID : A_AC3
Duration : 1 h 49 min
Bit rate mode : Constant
Bit rate : 640 kb/s
Channel(s) : 6 channels
Channel layout : L R C LFE Ls Rs
Sampling rate : 48.0 kHz
Frame rate : 31.250 FPS (1536 SPF)
Bit depth : 16 bits
Compression mode : Lossy
Stream size : 500 MiB (2%)
Title : Original 5.1
Language : English
Service kind : Complete Main
Default : No
Forced : No

Audio #4
ID : 5
Format : AC-3
Format/Info : Audio Coding 3
Commercial name : Dolby Digital
Codec ID : A_AC3
Duration : 1 h 49 min
Bit rate mode : Constant
Bit rate : 192 kb/s
Channel(s) : 2 channels
Channel layout : L R
Sampling rate : 48.0 kHz
Frame rate : 31.250 FPS (1536 SPF)
Bit depth : 16 bits
Compression mode : Lossy
Stream size : 150 MiB (1%)
Title : Original 2.0 | Commentary with Director John Badham, Editor Frank Morriss, and Motion Control Supervisor Hoyt Yeatman
Language : English
Service kind : Complete Main
Default : No
Forced : No

Text #1
ID : 6
Format : PGS
Muxing mode : zlib
Codec ID : S_HDMV/PGS
Codec ID/Info : Picture based subtitle format used on BDs/HD-DVDs
Duration : 1 h 44 min
Bit rate : 27.7 kb/s
Count of elements : 2048
Stream size : 20.8 MiB (0%)
Title : Eng (Full)
Language : English
Default : No
Forced : No

Text #2
ID : 7
Format : PGS
Muxing mode : zlib
Codec ID : S_HDMV/PGS
Codec ID/Info : Picture based subtitle format used on BDs/HD-DVDs
Duration : 1 h 45 min
Bit rate : 22.3 kb/s
Count of elements : 2352
Stream size : 16.9 MiB (0%)
Title : Eng (SDH)
Language : English
Default : No
Forced : No

Text #3
ID : 8
Format : PGS
Muxing mode : zlib
Codec ID : S_HDMV/PGS
Codec ID/Info : Picture based subtitle format used on BDs/HD-DVDs
Duration : 1 h 49 min
Bit rate : 51.5 kb/s
Count of elements : 3136
Stream size : 40.2 MiB (0%)
Title : Eng (Full) | Commentary with Director John Badham, Editor Frank Morriss, and Motion Control Supervisor Hoyt Yeatman
Language : English
Default : No
Forced : No

Menu
00:00:00.000 : en:Chapter 1
00:07:40.460 : en:Chapter 2
00:11:56.090 : en:Chapter 3
00:19:11.024 : en:Chapter 4
00:29:24.387 : en:Chapter 5
00:38:52.330 : en:Chapter 6
00:44:53.816 : en:Chapter 7
00:51:10.859 : en:Chapter 8
00:58:30.673 : en:Chapter 9
01:01:10.458 : en:Chapter 10
01:09:58.777 : en:Chapter 11
01:15:31.360 : en:Chapter 12
01:21:26.590 : en:Chapter 13
01:29:16.517 : en:Chapter 14
01:30:35.805 : en:Chapter 15
01:42:13.877 : en:Chapter 16
Скріншоти
Джерело: &
Висловлюю подяку за звук п. RobinHud та невідомому автору за українізований постер
Особиста оцінка: 8 - мені сподобалося


Золотий реліз (завантажене не впливає на рейтинг)
 Трекер:    Зареєстрований   

Завантажити / скачати фільм українською



відео для новачків



 Зареєстрований:   2019-11-27 01:25
 Розмір:   22.05 GB 
 Оцінка фільму:   9.2/10 (Голосів: 12)
   
Інші релізи
   Блакитний Грім / Blue Thunder (1983) 720p Ukr/Eng RobinHud  1 / 0   4.65 GB   2010-08-16 22:29 
   Блакитний Грім / Blue Thunder (1983) Ukr/Eng RobinHud  2 / 0   2.13 GB   2010-03-10 01:36 
+380954897458 
VIP


З нами з: 02.06.17
Востаннє: 18.09.20
Повідомлень: 942

2019-11-27 02:11  
А чому Уоррена Оутса не виділили якимось красивим кольором? Він того заслуговує. Навіть на двох скріншотах присутній. Фільму, на жаль, повністю не бачив жодного разу, лише уривками.
MakRA 
VIP


З нами з: 11.11.18
Востаннє: 23.09.20
Повідомлень: 1119

2019-11-27 02:24  
+380954897458 написано:
А чому Уоррена Оутса не виділили якимось красивим кольором?

Точно! Як же я міг пропустити Wink (1) звик його більше у вестернах бачити...
А цей фільм сам лише сьогодні подивився повністю від початку і до кінця.

Додано через 3 хвилини 28 секунд:

Ніби і старенький вже і в технічному плані і взагалі , а от чимось зачіплює. Мабуть зйомками і сюжетом.

migelius 
Свій


З нами з: 29.02.08
Востаннє: 23.09.20
Повідомлень: 112

2019-11-27 05:26  
Бачив колись в кіною Тоді це був крутезний фільм. Тре качати.
+380954897458 
VIP


З нами з: 02.06.17
Востаннє: 18.09.20
Повідомлень: 942

2019-11-27 19:50  
MakRA
І акторами, звісно!

sci-fi 
Свій


З нами з: 16.10.13
Востаннє: 23.09.20
Повідомлень: 124

2019-12-07 13:37  
Рой Шайдер тут чудово зіграв, але мені він більше згадується по ролі у телесеріалі SeaQuest. Фільм цей вже бачив декілька разів, але із задоволенням переглянув зараз, тим більше у такій чудовій якості. Що можу сказати - попри свій поважний вік (1983 рік все таки!) він і зараз дивиться круто! Гарні зйомки, простий, доволі реалістичний сюжет. Щось у цьому фільмі таке є, відчуваю, що ще переглядатиму його...

8.5 / 10
Дякую за якісний реліз.

[email protected] 
VIP


З нами з: 25.03.17
Востаннє: 21.09.20
Повідомлень: 551

2020-04-20 13:22  
Непоганий фільм.
Ваш часовий пояс: GMT + 2 Години

Нова тема   Відповісти